За последнюю неделю опубликовано 59 новых материалов.
Инструкция новичку Путеводитель по форуму Прокси для Telegram Показать подсказки , это бомба!

Скачать Лето 84 / Summer of 84 (2018) WEB-DL 1080p | HDrezka Studio бесплатно через торрент

  • Поучаствуй (в качестве покупателя) в любых пяти совместных покупках (кроме завершённых и "Моментальных") и получи группу "Новичок" навсегда -> ссылка на раздел
  • Получай до 480 рублей за каждого приглашенного пользователя!
    представляем Вам очередное расширение партнерской программы, подробности описаны тут -> ссылка
  • 90% материалов доступно к скачиванию после простой регистрации!
    Если же ты хочешь скачивать материалы без требования оставлять отзывы то получи группу "Новичок", 10 способов повышения описаны тут -> ссылка
  • К сожалению количество битых ссылок растет и мы уже не можем их оперативно восстанавливать поэтому просим помощи у каждого нашего пользователя.
    С сегодняшнего дня, за каждую восстановленную ссылку мы заплатим Вам.
    Подробнее тут -> ссылка
  • Перенесем твои заслуги с другого ресурса!
    Мы понимаем как сложно прокачивать аккаунты на форумах, вроде раскачал аккаунт, а тут появляется ресурс в 100 раз круче но тоже с системой прокачки и снова качать аккаунт...
    Предлагаем вам перенести Ваши заслуги на другом подобном ресурсе к нам.
    Подробности описаны тут -> ссылка
  • Вы можете получать по 2.5% с каждой покупки и продажи на маркете! Подробности в теме Партнёрская программа
Если Вы не хотите скачивать, Вы всегда можетепосмотретьонлайн, просто нажмите кнопку ниже :

Открыть плеер

Torrent_Bot

Торрент-Бот
Бот форума
4 Окт 2016
82
186
20
Информация о фильме
Название: Лето 84
Оригинальное название: Summer of 84
Год выхода: 2018
Жанр: Ужасы, триллер, драма, детектив
Режиссер: Франсуа Симар, Анук Висселль, Йоанн-Карл Висселль
В ролях: Грэм Верчир, Джуда Льюис, Калеб Эмери, Кори Грютер-Эндрю, Тиера Сковбай, Рич Соммер, Джейсон Грей-Стенфорд, Шона Йоханнесен, Марк Брэндон, Дж. Алекс Бринсон

О фильме:
Четверо 15-летних друзей проводят лето 1984 года за необычным занятием: они вычисляют серийного убийцу, несколько лет подряд орудующего в округе. Все улики ведут к соседскому дому, где живёт уважаемый офицер полиции.



Страна: Канада, США
Студия: Brightlight Pictures, Gunpowder & Sky
Продолжительность: 01:45:32
Перевод: Профессиональный (многоголосый, закадровый) | HDrezka Studio

Файл
Кодек: H.264
Качество: WEB-DL 1080p
Видео: AVC/H.264, 1920x804, ~4606 kbps, 23.976 fps
Звук:
Аудио 1: AC3, 2 ch, 192 Kbps - Русский
Аудио 2: AC3, 6 ch, 384 Kbps - Английский
Субтитры: Русские, английские

Семпл
Mediainfo
Общее
Уникальный идентификатор : 95035370377674956344628608824675017068 (0x477F2584DDC9080C3CD76DEB974E216C)
Полное имя : Summer of_84.2018.WEB-DL.1080p.W.mkv
Формат : Matroska
Версия формата : Version 4 / Version 2
Размер файла : 3,82 Гбайт
Продолжительность : 1 ч. 45 м.
Общий поток : 5184 Кбит/сек
Дата кодирования : UTC 2018-09-01 09:03:51
Программа кодирования : mkvmerge v23.0.0 ('The Bride Said No') 64-bit
Библиотека кодирования : libebml v1.3.6 + libmatroska v1.4.9

Видео
Идентификатор : 1
Формат : AVC
Формат/Информация : Advanced Video Codec
Профиль формата : [email protected]
Настройки формата : CABAC / 5 Ref Frames
Параметр CABAC формата : Да
Параметр RefFrames формата : 5 кадров
Идентификатор кодека : V_MPEG4/ISO/AVC
Продолжительность : 1 ч. 45 м.
Битрейт : 4606 Кбит/сек
Ширина : 1920 пикселей
Высота : 804 пикселя
Соотношение сторон : 2,40:1
Режим частоты кадров : Постоянный
Частота кадров : 23,976 кадра/сек
Цветовое пространство : YUV
Субдискретизация насыщенности : 4:2:0
Битовая глубина : 8 бит
Тип развёртки : Прогрессивная
Бит/(Пиксели*Кадры) : 0.124
Размер потока : 3,39 Гбайт (89%)
Язык : English
Default : Да
Forced : Нет
Цветовой диапазон : Limited
Основные цвета : BT.709
Характеристики трансфера : BT.709
Коэффициенты матрицы : BT.709

Аудио #1
Идентификатор : 2
Формат : AC-3
Формат/Информация : Audio Coding 3
Идентификатор кодека : A_AC3
Продолжительность : 1 ч. 45 м.
Вид битрейта : Постоянный
Битрейт : 192 Кбит/сек
Каналы : 2 канала
Расположение каналов : Front: L R
Частота : 48,0 КГц
Частота кадров : 31,250 кадров/сек (1536 SPF)
Битовая глубина : 16 бит
Метод сжатия : С потерями
Задержка видео : -42 мс.
Размер потока : 145 Мбайт (4%)
Заголовок : MVO (HDRezka studio)
Язык : Russian
ServiceKind : Complete Main
Default : Да
Forced : Нет

Аудио #2
Идентификатор : 3
Формат : AC-3
Формат/Информация : Audio Coding 3
Идентификатор кодека : A_AC3
Продолжительность : 1 ч. 45 м.
Вид битрейта : Постоянный
Битрейт : 384 Кбит/сек
Каналы : 6 каналов
Расположение каналов : Front: L C R, Side: L R, LFE
Частота : 48,0 КГц
Частота кадров : 31,250 кадров/сек (1536 SPF)
Битовая глубина : 16 бит
Метод сжатия : С потерями
Задержка видео : -42 мс.
Размер потока : 290 Мбайт (7%)
Язык : English
ServiceKind : Complete Main
Default : Нет
Forced : Нет

Текст #1
Идентификатор : 4
Формат : UTF-8
Идентификатор кодека : S_TEXT/UTF8
Идентификатор кодека/Информация : UTF-8 Plain Text
Продолжительность : 1 ч. 40 м.
Битрейт : 99 бит/сек
ElementCount : 1604
Размер потока : 73,5 Кбайт (0%)
Заголовок : Full (PhysKids)
Язык : Russian
Default : Нет
Forced : Нет

Текст #2
Идентификатор : 5
Формат : UTF-8
Идентификатор кодека : S_TEXT/UTF8
Идентификатор кодека/Информация : UTF-8 Plain Text
Продолжительность : 1 ч. 40 м.
Битрейт : 62 бит/сек
ElementCount : 1621
Размер потока : 45,7 Кбайт (0%)
Заголовок : Full
Язык : English
Default : Нет
Forced : Нет

Меню
00:00:00.000 : en:1
00:12:31.000 : en:2
00:24:23.000 : en:3
00:37:18.000 : en:4
00:45:56.000 : en:5
00:57:26.000 : en:6
01:06:18.000 : en:7
01:17:51.000 : en:8
01:26:43.000 : en:9
01:41:04.000 : en:10
Скриншоты
 

Вложения

  • 20 KB Просмотры: 1
    Личеров 0
    Сидеров 0
    Файлов 1
    Объем 3,8 GB

Привет!

Мы группа людей которые решили помочь другим в решении их проблем, а так же пользователям с поиском самых свежих и качественных инфопродуктов. За 4 с небольшим месяца мы создали этот форум на который заходят ежедневно тысячи человек и посещаемость постоянно растёт. Мы создали панель лицензирования для защиты PHP скриптов от воровства и SEO панель для мониторинга наших сайтов и выбора верной стратегии их развития. Мы надеемся что то что мы создали пригодится Вам и возможно Вы поможете нам развиваться и совершенствоваться вместе с Вами.

Статистика форума

Темы
412.188
Сообщения
471.243
Пользователи
91.705
Новый пользователь
ivanmanul

Приложения форума для iOS и Android


У ркн там нет власти ;)
Приватные разговоры
Помощь Пользователи
    Вы не присоединились ни к одной комнате.