За последнюю неделю опубликовано 57 новых материалов.
Инструкция новичку Путеводитель по форуму Прокси для Telegram Показать подсказки , это бомба!

Скачать Лето 84 / Summer of 84 (2018) HDRip | КПК | D, P | iTunes бесплатно через торрент

  • Поучаствуй (в качестве покупателя) в любых пяти совместных покупках (кроме завершённых и "Моментальных") и получи группу "Новичок" навсегда -> ссылка на раздел
  • Получай до 480 рублей за каждого приглашенного пользователя!
    представляем Вам очередное расширение партнерской программы, подробности описаны тут -> ссылка
  • 90% материалов доступно к скачиванию после простой регистрации!
    Если же ты хочешь скачивать материалы без требования оставлять отзывы то получи группу "Новичок", 10 способов повышения описаны тут -> ссылка
  • К сожалению количество битых ссылок растет и мы уже не можем их оперативно восстанавливать поэтому просим помощи у каждого нашего пользователя.
    С сегодняшнего дня, за каждую восстановленную ссылку мы заплатим Вам.
    Подробнее тут -> ссылка
  • Перенесем твои заслуги с другого ресурса!
    Мы понимаем как сложно прокачивать аккаунты на форумах, вроде раскачал аккаунт, а тут появляется ресурс в 100 раз круче но тоже с системой прокачки и снова качать аккаунт...
    Предлагаем вам перенести Ваши заслуги на другом подобном ресурсе к нам.
    Подробности описаны тут -> ссылка
  • Вы можете получать по 2.5% с каждой покупки и продажи на маркете! Подробности в теме Партнёрская программа
Если Вы не хотите скачивать, Вы всегда можетепосмотретьонлайн, просто нажмите кнопку ниже :

Открыть плеер

Torrent_Bot

Торрент-Бот
Бот форума
4 Окт 2016
92
160
20



Информация о фильме
Название: Лето 84
Оригинальное название: Summer of 84
Год выхода: 2018
Жанр: триллер, детектив, криминал
Режиссер: Франсуа Симар, Анук Висселль, Йоанн-Карл Висселль
В ролях: Грэм Верчир, Джуда Льюис, Калеб Эмери, Кори Грютер-Эндрю, Тиера Сковбай, Рич Соммер, Джейсон Грей-Стенфорд, Шона Йоханнесен, Марк Брэндон, Дж. Алекс Бринсон

О фильме:
Четверо 15-летних друзей проводят лето 1984 года за необычным занятием: они вычисляют серийного убийцу, несколько лет подряд орудующего в округе. Все улики ведут к соседскому дому, где живёт уважаемый офицер полиции.



Страна: Канада, США
Студия: Brightlight Pictures, Gunpowder & Sky
Продолжительность: 01:45:36
Перевод: Дублированный [iTunes], Профессиональный (многоголосый, закадровый) | HDrezka Studio

Файл
Формат: MP4
Качество: HDRip (исх. BDRip 720p) *
Видео: AVC, 640x268 (2.39:1), at 23.976 fps, 400 kb/s
Аудио 1: AAC LC SBR, 48.0 KHz, 2 ch, ~64 kb/s | DUB - iTunes
Аудио 2: AAC LC SBR, 48.0 KHz, 2 ch, 64 kb/s | MVO - HDrezka Studio
Субтитры: Нет

* за исходник спасибо walledoll

MediaInfo
General
Complete name : Summer.of.84_2018_D.P.HDRip.mp4
Format : MPEG-4
Format profile : Base Media
Codec ID : isom (isom)
File size : 400 MiB
Duration : 1 h 45 min
Overall bit rate mode : Variable
Overall bit rate : 530 kb/s
Encoded date : UTC 2020-08-12 12:41:02
Tagged date : UTC 2020-08-12 12:41:02
Writing application : Yamb 2.1.0.0 [http://yamb.unite-video.com]

Video
ID : 1
Format : AVC
Format/Info : Advanced Video Codec
Format profile : [email protected]
Format settings : CABAC / 13 Ref Frames
Format settings, CABAC : Yes
Format settings, RefFrames : 13 frames
Codec ID : avc1
Codec ID/Info : Advanced Video Coding
Duration : 1 h 45 min
Bit rate : 400 kb/s
Maximum bit rate : 1 859 kb/s
Width : 640 pixels
Height : 268 pixels
Display aspect ratio : 2.40:1
Frame rate mode : Constant
Frame rate : 23.976 (24000/1001) FPS
Color space : YUV
Chroma subsampling : 4:2:0
Bit depth : 8 bits
Scan type : Progressive
Bits/(Pixel*Frame) : 0.097
Stream size : 301 MiB (75%)
Title : Summer of 84
Writing library : x264 core 133 r2334 a3ac64b
Encoding settings : cabac=1 / ref=13 / deblock=1:-3:-2 / analyse=0x3:0x113 / me=umh / subme=10 / psy=1 / psy_rd=1.00:0.00 / mixed_ref=1 / me_range=32 / chroma_me=1 / trellis=2 / 8x8dct=1 / cqm=0 / deadzone=21,11 / fast_pskip=0 / chroma_qp_offset=-2 / threads=6 / lookahead_threads=1 / sliced_threads=0 / nr=0 / decimate=0 / interlaced=0 / bluray_compat=0 / constrained_intra=0 / bframes=14 / b_pyramid=2 / b_adapt=2 / b_bias=0 / direct=3 / weightb=1 / open_gop=0 / weightp=2 / keyint=250 / keyint_min=23 / scenecut=40 / intra_refresh=0 / rc=2pass / mbtree=0 / bitrate=400 / ratetol=1.0 / qcomp=0.65 / qpmin=0 / qpmax=69 / qpstep=4 / cplxblur=20.0 / qblur=0.5 / ip_ratio=1.40 / pb_ratio=1.30 / aq=1:0.95
Language : English
Encoded date : UTC 2020-08-13 11:23:05
Tagged date : UTC 2020-08-12 12:42:04
Codec configuration box : avcC

Audio #1
ID : 2
Format : AAC LC SBR
Format/Info : Advanced Audio Codec Low Complexity with Spectral Band Replication
Commercial name : HE-AAC
Format settings : Explicit
Codec ID : mp4a-40-2
Duration : 1 h 45 min
Bit rate mode : Variable
Bit rate : 63.9 kb/s
Maximum bit rate : 195 kb/s
Channel(s) : 2 channels
Channel layout : L R
Sampling rate : 48.0 kHz
Frame rate : 23.438 FPS (2048 SPF)
Compression mode : Lossy
Stream size : 48.3 MiB (12%)
Title : DUB | iTunes
Language : Russian
Encoded date : UTC 2020-08-12 12:41:54
Tagged date : UTC 2020-08-12 12:42:04

Audio #2
ID : 3
Format : AAC LC SBR
Format/Info : Advanced Audio Codec Low Complexity with Spectral Band Replication
Commercial name : HE-AAC
Format settings : Explicit
Codec ID : mp4a-40-2
Duration : 1 h 45 min
Bit rate mode : Variable
Bit rate : 64.0 kb/s
Maximum bit rate : 195 kb/s
Channel(s) : 2 channels
Channel layout : L R
Sampling rate : 48.0 kHz
Frame rate : 23.438 FPS (2048 SPF)
Compression mode : Lossy
Stream size : 48.3 MiB (12%)
Title : MVO - HDrezka Studio
Language : Russian
Encoded date : UTC 2020-08-12 12:41:59
Tagged date : UTC 2020-08-12 12:42:04
Скриншоты
 

Вложения

  • 16,6 KB Просмотры: 0
    Личеров 0
    Сидеров 0
    Файлов 1
    Объем 400,3 MB

Привет!

Мы группа людей которые решили помочь другим в решении их проблем, а так же пользователям с поиском самых свежих и качественных инфопродуктов. За 4 с небольшим месяца мы создали этот форум на который заходят ежедневно тысячи человек и посещаемость постоянно растёт. Мы создали панель лицензирования для защиты PHP скриптов от воровства и SEO панель для мониторинга наших сайтов и выбора верной стратегии их развития. Мы надеемся что то что мы создали пригодится Вам и возможно Вы поможете нам развиваться и совершенствоваться вместе с Вами.

Статистика форума

Темы
406.651
Сообщения
465.095
Пользователи
84.638
Новый пользователь
juviz

Приложения форума для iOS и Android


У ркн там нет власти ;)
Приватные разговоры
Помощь Пользователи
    Вы не присоединились ни к одной комнате.