За последнюю неделю опубликовано 82 новых материалов.
Инструкция новичку Путеводитель по форуму Прокси для Telegram Показать подсказки , это бомба!

Скачать Летние войны / Summer Wars (2009) BDRip от Deadmauvlad | D | Лицензия бесплатно через торрент

  • Поучаствуй (в качестве покупателя) в любых пяти совместных покупках (кроме завершённых и "Моментальных") и получи группу "Новичок" навсегда -> ссылка на раздел
  • Получай до 480 рублей за каждого приглашенного пользователя!
    представляем Вам очередное расширение партнерской программы, подробности описаны тут -> ссылка
  • 90% материалов доступно к скачиванию после простой регистрации!
    Если же ты хочешь скачивать материалы без требования оставлять отзывы то получи группу "Новичок", 10 способов повышения описаны тут -> ссылка
  • К сожалению количество битых ссылок растет и мы уже не можем их оперативно восстанавливать поэтому просим помощи у каждого нашего пользователя.
    С сегодняшнего дня, за каждую восстановленную ссылку мы заплатим Вам.
    Подробнее тут -> ссылка
  • Перенесем твои заслуги с другого ресурса!
    Мы понимаем как сложно прокачивать аккаунты на форумах, вроде раскачал аккаунт, а тут появляется ресурс в 100 раз круче но тоже с системой прокачки и снова качать аккаунт...
    Предлагаем вам перенести Ваши заслуги на другом подобном ресурсе к нам.
    Подробности описаны тут -> ссылка
  • Вы можете получать по 2.5% с каждой покупки и продажи на маркете! Подробности в теме Партнёрская программа

Torrent_Bot

Торрент-Бот
Бот форума
4 Окт 2016
104
152
20


Информация о фильме
Название: Летние войны
Оригинальное название: Summer Wars
Год выхода: 2009
Жанр:Приключения, комедия, фантастика
Режиссер: Хосода Мамору

О фильме:
Кэндзи Койсо от природы одарён великолепными математическими способностями. В то же время, учась в одиннадцатом классе, он очень робок и застенчив. Однако, когда его тайная любовь, сэмпай Нацуки Синохара, зовёт поехать с ней в префектуру Нагано к её семье, Кэндзи соглашается без раздумий.
Семьёй Нацуки приходится клан Дзинноути, ведущий свой род с эпохи Муромати (1336-1573 годы). В этом году весь клан собирается в родовом поместье праздновать девяностолетие матриарха.
Знал бы Кэндзи заранее, чего хочет от него Нацуки, вряд ли бы он решился на поездку. А хочет она, чтобы тот на всё время пребывания в Нагано играл роль её жениха и производил хорошее впечатление на родственников. Чем ему и приходится заниматься, когда ночью на его телефон поступает сообщение со странной математической загадкой, и Кэндзи, будучи неравнодушным к таким вещам, тут же бросается решать её.
Загадку он в конце концов решает, но это ни к чему хорошему не приводит. Решение оказывается ключом полного доступа к виртуальной реальности, куда в настоящий момент переселилась уже почти треть человечества, и откуда происходит управление за всеми процессами в мире, начиная с контроля уличного движения и заканчивая управлением спутниками и ядерным оружием.
В одночасье мир погружается в анархию и хаос. И теперь Кэндзи вместе с семьёй Дзинноути должны привести всё назад в норму.

Страна: Япония
Студия:
Продолжительность: 01:53:24
Перевод: Профессиональный Полное дублирование (Реанимедиа) [Лицензия]

Файл
Кодек: XviD
Качество: BDRip [Blu-ray Disk (RUS) byKuji Kita]
Видео: XviD, 720x400 (16:9), 23.976 fps, 1813 Кбит/сек (0.262 bit/pixel)
Аудио №1: AC-3, 48,0 КГц, 6 ch, 448 Кбит/сек, CBR | | Реанимедиа
Аудио №2: AC-3, 48,0 КГц, 6 ch, 448 Кбит/сек, CBR | | Оригинал
Субтитры: Русские (надписи)

MediaInfo
Общее
Полное имя : Летние.Войны.DUB.2009.BDRip.Deadmauvlad.2.18.GB.avi
Формат : AVI
Формат/Информация : Audio Video Interleave
Профиль формата : OpenDML
Размер файла : 2,17 Гбайт
Продолжительность : 1 ч. 54 м.
Общий поток : 2726 Кбит/сек
Название фильма : Летние.Войны.DUB.2009.BDRip.Deadmauvlad.2.18.GB
Режиссёр : Encoder by Deadmauvlad
Жанр : приключения, комедия
Программа кодирования : VirtualDubMod 1.5.10.3 | www.virtualdub-fr.org || (build 2550/release)
Формат оригинала/Имя : Аниме
Авторское право : Encoder by Deadmauvlad
Примечание : Encoder by Deadmauvlad

Видео
Идентификатор : 0
Формат : MPEG-4 Visual
Профиль формата : Advanced Simple@L5
Настройки формата : BVOP1 / Custom Matrix
Параметр BVOP формата : 1
Параметр QPel формата : Нет
Параметр GMC формата : Без точки перехода
Параметр матрицы формата : Выборочная
Идентификатор кодека : XVID
Идентификатор кодека/Подсказка : XviD
Продолжительность : 1 ч. 54 м.
Битрейт : 1813 Кбит/сек
Ширина : 720 пикселей
Высота : 400 пикселей
Соотношение сторон : 16:9
Частота кадров : 23,976 (24000/1001) кадра/сек
Цветовое пространство : YUV
Субдискретизация насыщенности : 4:2:0
Битовая глубина : 8 бит
Тип развёртки : Прогрессивная
Метод сжатия : С потерями
Бит/(Пиксели*Кадры) : 0.262
Размер потока : 1,45 Гбайт (66%)
Библиотека кодирования : XviD 73

Аудио #1
Идентификатор : 1
Формат : AC-3
Формат/Информация : Audio Coding 3
Коммерческое название : Dolby Digital
Идентификатор кодека : 2000
Продолжительность : 1 ч. 54 м.
Вид битрейта : Постоянный
Битрейт : 448 Кбит/сек
Каналы : 6 каналов
Channel layout : L R C LFE Ls Rs
Частота : 48,0 КГц
Частота кадров : 31,250 кадров/сек (1536 SPF)
Битовая глубина : 16 бит
Метод сжатия : С потерями
Размер потока : 366 Мбайт (16%)
Выравнивание : Разделение по промежуткам
Продолжительность промежутка : 42 мс. (1,00 видеокадр)
Время предзагрузки промежутка : 500 мс.


Аудио #2
Идентификатор : 2
Формат : AC-3
Формат/Информация : Audio Coding 3
Коммерческое название : Dolby Digital
Идентификатор кодека : 2000
Продолжительность : 1 ч. 54 м.
Вид битрейта : Постоянный
Битрейт : 448 Кбит/сек
Каналы : 6 каналов
Channel layout : L R C LFE Ls Rs
Частота : 48,0 КГц
Частота кадров : 31,250 кадров/сек (1536 SPF)
Битовая глубина : 16 бит
Метод сжатия : С потерями
Размер потока : 366 Мбайт (16%)
Выравнивание : Разделение по промежуткам
Продолжительность промежутка : 42 мс. (1,00 видеокадр)
Время предзагрузки промежутка : 500 мс.

Скриншоты





Релиз Без Рекламы √
 

Вложения

  • 12,2 KB Просмотры: 1
    Личеров 0
    Сидеров 0
    Файлов 2
    Объем 2,2 GB

Привет!

Мы группа людей которые решили помочь другим в решении их проблем, а так же пользователям с поиском самых свежих и качественных инфопродуктов. За 4 с небольшим месяца мы создали этот форум на который заходят ежедневно тысячи человек и посещаемость постоянно растёт. Мы создали панель лицензирования для защиты PHP скриптов от воровства и SEO панель для мониторинга наших сайтов и выбора верной стратегии их развития. Мы надеемся что то что мы создали пригодится Вам и возможно Вы поможете нам развиваться и совершенствоваться вместе с Вами.

Статистика форума

Темы
404.542
Сообщения
461.449
Пользователи
80.087
Новый пользователь
viktor1823

Приложения форума для iOS и Android


У ркн там нет власти ;)
Приватные разговоры
Помощь Пользователи
    Вы не присоединились ни к одной комнате.