За последнюю неделю опубликовано 62 новых материалов.
Инструкция новичку Путеводитель по форуму Прокси для Telegram Показать подсказки , это бомба!

Скачать Легендарное ограбление / Хранилище / Vault (2019) BDRip 720p от ExKinoRay | iTunes бесплатно через торрент

  • Поучаствуй (в качестве покупателя) в любых пяти совместных покупках (кроме завершённых и "Моментальных") и получи группу "Новичок" навсегда -> ссылка на раздел
  • Получай до 480 рублей за каждого приглашенного пользователя!
    представляем Вам очередное расширение партнерской программы, подробности описаны тут -> ссылка
  • 90% материалов доступно к скачиванию после простой регистрации!
    Если же ты хочешь скачивать материалы без требования оставлять отзывы то получи группу "Новичок", 10 способов повышения описаны тут -> ссылка
  • К сожалению количество битых ссылок растет и мы уже не можем их оперативно восстанавливать поэтому просим помощи у каждого нашего пользователя.
    С сегодняшнего дня, за каждую восстановленную ссылку мы заплатим Вам.
    Подробнее тут -> ссылка
  • Перенесем твои заслуги с другого ресурса!
    Мы понимаем как сложно прокачивать аккаунты на форумах, вроде раскачал аккаунт, а тут появляется ресурс в 100 раз круче но тоже с системой прокачки и снова качать аккаунт...
    Предлагаем вам перенести Ваши заслуги на другом подобном ресурсе к нам.
    Подробности описаны тут -> ссылка
  • Вы можете получать по 2.5% с каждой покупки и продажи на маркете! Подробности в теме Партнёрская программа
Если Вы не хотите скачивать, Вы всегда можетепосмотретьонлайн, просто нажмите кнопку ниже :

Открыть плеер

Torrent_Bot

Торрент-Бот
Бот форума
4 Окт 2016
92
160
20



Название: Легендарное ограбление (Хранилище)
Оригинальное название: Vault
Год выпуска: 2019
Жанр: Драма, криминал
Режиссер: Том ДеНуччи
В ролях: Тео Росси, Клайв Стэнден, Самира Уайли, Чазз Пальминтери, Дон Джонсон, Уильям Форсайт, Шон Рейнгголд, Чак Цито, Винсент Пасторе, Эрик Лютес

О фильме: Дойс и Чаки — мелкие преступники, которые в начале криминальной карьеры грабили магазины. Со временем они доросли до ограблений банков, но вскоре на их след вышла полиция, и парни получили длительные сроки заключения. В тюрьме друзья познакомились с французским бандитом Джерри, работающим на босса итальянской мафии, который предложил им организовать и осуществить крупное ограбление. В итоге Дойс и Чаки соглашаются украсть тридцать миллионов долларов, спрятанных в хранилище маленького городка, но есть одна проблема: деньги принадлежат мафии.



Страна: США
Студия: Dos Dudes Pictures, Verdi Productions
Продолжительность: 01:39:11
Перевод: Дублированный | iTunes

Формат: MKV
Качество: BDRip 720p
Источник: iFT
Видео: MPEG-4 AVC, 1280x816 (2.35:1), 23.976 fps, ~ 6 Mbps avg, 0.359 bit/pixel
Аудио 1: 48 kHz, AC3, 5.1, 384 Kbps | iTunes | RUS |
Аудио 2: 48 kHz, DTS, 5.1, 1509 Kbps | original | ENG |
Субтитры: Русские, английские






ОтчетМедиаИнфо
General
Unique ID : 215640412631646396228623213935834762080 (0xA23AD531C5F8E9A08B9BEA0E63110B60)
Complete name : D:Vault.2019.BDRip.720p.ExKinoRay.mkv
Format : Matroska
Format version : Version 4
File size : 5.45 GiB
Duration : 1 h 39 min
Overall bit rate : 7 869 kb/s
Movie name : Vault 2019 from ExKinoRay
Encoded date : UTC 2020-07-15 20:35:08
Writing application : mkvmerge v7.3.0 ('Nouages') 64bit built on Oct 22 2014 18:53:34
Writing library : libebml v1.3.0 + libmatroska v1.4.1

Video
ID : 1
Format : AVC
Format/Info : Advanced Video Codec
Format profile : [email protected]
Format settings : CABAC / 12 Ref Frames
Format settings, CABAC : Yes
Format settings, Reference : 12 frames
Codec ID : V_MPEG4/ISO/AVC
Duration : 1 h 39 min
Bit rate : 6 000 kb/s
Width : 1 280 pixels
Height : 544 pixels
Display aspect ratio : 2.35:1
Frame rate mode : Constant
Frame rate : 23.976 (24000/1001) FPS
Color space : YUV
Chroma subsampling : 4:2:0
Bit depth : 8 bits
Scan type : Progressive
Bits/(Pixel*Frame) : 0.359
Stream size : 4.14 GiB (76%)
Title : iFT
Writing library : x264 core 155 r2867+74 66b5600 t_mod_Custom_2 [[email protected] X86_64]
Encoding settings : cabac=1 / ref=12 / deblock=1:-3:-3 / analyse=0x3:0x133 / me=umh / subme=11 / psy=1 / fade_compensate=0.00 / psy_rd=1.00:0.00 / mixed_ref=1 / me_range=32 / chroma_me=1 / trellis=2 / 8x8dct=1 / cqm=0 / deadzone=21,11 / fast_pskip=0 / chroma_qp_offset=-2 / threads=17 / lookahead_threads=2 / sliced_threads=0 / nr=0 / decimate=0 / interlaced=0 / bluray_compat=0 / constrained_intra=0 / fgo=0 / bframes=8 / b_pyramid=2 / b_adapt=2 / b_bias=0 / direct=3 / weightb=1 / open_gop=0 / weightp=2 / keyint=250 / keyint_min=23 / scenecut=40 / intra_refresh=0 / rc=2pass / mbtree=0 / bitrate=6000 / ratetol=1.0 / qcomp=0.60 / qpmin=0:0:0 / qpmax=69:69:69 / qpstep=4 / cplxblur=20.0 / qblur=0.5 / ip_ratio=1.30 / pb_ratio=1.20 / aq=3:0.80 / aq-sensitivity=10.00 / aq-factor=1.00:1.00:1.00 / aq2=0 / aq3=0
Language : English
Default : Yes
Forced : No
Color range : Limited
Matrix coefficients : BT.709

Audio #1
ID : 2
Format : AC-3
Format/Info : Audio Coding 3
Commercial name : Dolby Digital
Codec ID : A_AC3
Duration : 1 h 39 min
Bit rate mode : Constant
Bit rate : 384 kb/s
Channel(s) : 6 channels
Channel layout : L R C LFE Ls Rs
Sampling rate : 48.0 kHz
Frame rate : 31.250 FPS (1536 SPF)
Compression mode : Lossy
Stream size : 272 MiB (5%)
Language : Russian
Service kind : Complete Main
Default : Yes
Forced : No

Audio #2
ID : 3
Format : DTS
Format/Info : Digital Theater Systems
Codec ID : A_DTS
Duration : 1 h 39 min
Bit rate mode : Constant
Bit rate : 1 509 kb/s
Channel(s) : 6 channels
Channel layout : C L R Ls Rs LFE
Sampling rate : 48.0 kHz
Frame rate : 93.750 FPS (512 SPF)
Bit depth : 24 bits
Compression mode : Lossy
Stream size : 1.05 GiB (19%)
Language : English
Default : No
Forced : No

Text #1
ID : 4
Format : UTF-8
Codec ID : S_TEXT/UTF8
Codec ID/Info : UTF-8 Plain Text
Duration : 1 h 33 min
Bit rate : 98 b/s
Count of elements : 1330
Stream size : 67.7 KiB (0%)
Language : Russian
Default : No
Forced : No

Text #2
ID : 5
Format : UTF-8
Codec ID : S_TEXT/UTF8
Codec ID/Info : UTF-8 Plain Text
Duration : 1 h 33 min
Bit rate : 58 b/s
Count of elements : 1153
Stream size : 39.8 KiB (0%)
Language : English
Default : No
Forced : No

Menu
00:00:00.000 : en:Capítulo 01
00:05:39.631 : en:Capítulo 02
00:13:41.738 : en:Capítulo 03
00:17:38.266 : en:Capítulo 04
00:23:28.407 : en:Capítulo 05
00:29:12.250 : en:Capítulo 06
00:35:42.474 : en:Capítulo 07
00:42:18.995 : en:Capítulo 08
00:47:11.328 : en:Capítulo 09
00:57:36.578 : en:Capítulo 10
01:00:26.540 : en:Capítulo 11
01:04:45.882 : en:Capítulo 12
01:13:09.385 : en:Capítulo 13
01:18:57.316 : en:Capítulo 14
01:25:14.401 : en:Capítulo 15
01:30:32.135 : en:Capítulo 16

Релиз от:

Автор релиза:
 

Вложения

  • 28,2 KB Просмотры: 0
    Личеров 0
    Сидеров 0
    Файлов 1
    Объем 5,5 GB

Привет!

Мы группа людей которые решили помочь другим в решении их проблем, а так же пользователям с поиском самых свежих и качественных инфопродуктов. За 4 с небольшим месяца мы создали этот форум на который заходят ежедневно тысячи человек и посещаемость постоянно растёт. Мы создали панель лицензирования для защиты PHP скриптов от воровства и SEO панель для мониторинга наших сайтов и выбора верной стратегии их развития. Мы надеемся что то что мы создали пригодится Вам и возможно Вы поможете нам развиваться и совершенствоваться вместе с Вами.

Статистика форума

Темы
406.657
Сообщения
465.111
Пользователи
84.664
Новый пользователь
nastsiqq12

Приложения форума для iOS и Android


У ркн там нет власти ;)
Приватные разговоры
Помощь Пользователи
    Вы не присоединились ни к одной комнате.