За последнюю неделю опубликовано 85 новых материалов.
Инструкция новичку Путеводитель по форуму Прокси для Telegram Показать подсказки , это бомба!

Скачать Легенда о Белой Змее / Hakujaden (1958) HDRip от Deadmauvlad | L2 бесплатно через торрент

  • Поучаствуй (в качестве покупателя) в любых пяти совместных покупках (кроме завершённых и "Моментальных") и получи группу "Новичок" навсегда -> ссылка на раздел
  • Получай до 480 рублей за каждого приглашенного пользователя!
    представляем Вам очередное расширение партнерской программы, подробности описаны тут -> ссылка
  • 90% материалов доступно к скачиванию после простой регистрации!
    Если же ты хочешь скачивать материалы без требования оставлять отзывы то получи группу "Новичок", 10 способов повышения описаны тут -> ссылка
  • К сожалению количество битых ссылок растет и мы уже не можем их оперативно восстанавливать поэтому просим помощи у каждого нашего пользователя.
    С сегодняшнего дня, за каждую восстановленную ссылку мы заплатим Вам.
    Подробнее тут -> ссылка
  • Перенесем твои заслуги с другого ресурса!
    Мы понимаем как сложно прокачивать аккаунты на форумах, вроде раскачал аккаунт, а тут появляется ресурс в 100 раз круче но тоже с системой прокачки и снова качать аккаунт...
    Предлагаем вам перенести Ваши заслуги на другом подобном ресурсе к нам.
    Подробности описаны тут -> ссылка
  • Вы можете получать по 2.5% с каждой покупки и продажи на маркете! Подробности в теме Партнёрская программа

Torrent_Bot

Торрент-Бот
Бот форума
4 Окт 2016
102
152
20

Название: Легенда о Белой Змее
Название (ENGLISH): Legend of the White Snake
Название (Транскрипцией): Hakuja den
Название (Японское): 白蛇伝
Жанр: Кодомо, История, Романтика, Сказка
Премьера: 22 октября 1958
Режиссер: Ябусита Тайдзи
Автор оригинала: Уэхара Син
В главных ролях: Хисая Морисигэ, Марико Мияги, Вирджиния Блэкман, Лиза Лу, Джордж Мацуи, Джоди Макдауэлл, Sara Meric, Марвин Миллер, Боб Ньюман, Миико Така

Описание: Мальчика Ксю-Ксяна заставили освободить своего животного, маленькую змею. Он и не знал, что змея, на самом деле, богиня Бай-Нянг, и что она влюблена в юношу. Многие годы спустя, когда они выросли, принцесса магическим образом превратилась в человека и начала поиски своей любви. Но местный колдун считал ее вампиром, и изгнал Ксю-Ксяна из деревни, чтобы спасти его. Панда Ксю-Ксяна и Мими хотят спасти его и привести назад, чтобы стать лидерами группы животных.



Производство: Япония
Студия: Toei Animation
Продолжительность: 01:19:19
Перевод: Любительский Двухголосый закадровый O_ART (В 2008 году)
Перевод: Русские Субтитры + Оригинал

Файл
Качество: HDRip [Исходник: BDRip 1080p Moozzi2]
Формат: AVI
Видео: XviD, 720x528 (4:3), 23.976 fps, 2 051 kb/s (0.225 bit/pixel)
Аудио #1: AC-3, 48.0 kHz, 2 ch, 192 kb/s, CBR | | DVO (O_ART)
Аудио №2: AC-3, 48.0 kHz, 2 ch, 192 kb/s, CBR | | Japan (Оригинал)
Субтитры: Русские

MediaInfo
General
Complete name : [Deadmau- RAWS] Hakujaden.1958.RUS.JAP.HDRip.Deadmauvlad.1.36.GB.avi
Format : AVI
Format/Info : Audio Video Interleave
File size : 1.36 GiB
Duration : 1 h 19 min
Overall bit rate : 2 450 kb/s
Movie name : [Deadmau- RAWS] Hakujaden.1958.RUS.JAP.HDRip.Deadmauvlad.1.36.GB
Director : Encoder By Deadmauvlad
Genre : История, Романтика, Сказка
Writing application : VirtualDubMod 1.5.10.3 | www.virtualdub-fr.org || (build 2550/release)
Original source form/Name : Аниме
Copyright : Encoder By Deadmauvlad
Comment : Эксклюзивный контент ! Первое в Мире Аниме

Video
ID : 0
Format : MPEG-4 Visual
Format profile : Advanced Simple@L5
Format settings : BVOP1 / Custom Matrix
Format settings, BVOP : 1
Format settings, QPel : No
Format settings, GMC : No warppoints
Format settings, Matrix : Custom
Codec ID : XVID
Codec ID/Hint : XviD
Duration : 1 h 19 min
Bit rate : 2 051 kb/s
Width : 720 pixels
Height : 528 pixels
Display aspect ratio : 4:3
Frame rate : 23.976 (24000/1001) FPS
Color space : YUV
Chroma subsampling : 4:2:0
Bit depth : 8 bits
Scan type : Progressive
Compression mode : Lossy
Bits/(Pixel*Frame) : 0.225
Stream size : 1.14 GiB (84%)
Writing library : XviD 73

Audio #1
ID : 1
Format : AC-3
Format/Info : Audio Coding 3
Commercial name : Dolby Digital
Codec ID : 2000
Duration : 1 h 19 min
Bit rate mode : Constant
Bit rate : 192 kb/s
Channel(s) : 2 channels
Channel layout : L R
Sampling rate : 48.0 kHz
Frame rate : 31.250 FPS (1536 SPF)
Bit depth : 16 bits
Compression mode : Lossy
Stream size : 109 MiB (8%)
Alignment : Split accross interleaves
Interleave, duration : 42 ms (1.00 video frame)
Interleave, preload duration : 500 ms


Audio #2
ID : 2
Format : AC-3
Format/Info : Audio Coding 3
Commercial name : Dolby Digital
Codec ID : 2000
Duration : 1 h 19 min
Bit rate mode : Constant
Bit rate : 192 kb/s
Channel(s) : 2 channels
Channel layout : L R
Sampling rate : 48.0 kHz
Frame rate : 31.250 FPS (1536 SPF)
Bit depth : 16 bits
Compression mode : Lossy
Stream size : 109 MiB (8%)
Alignment : Split accross interleaves
Interleave, duration : 42 ms (1.00 video frame)
Interleave, preload duration : 500 ms

Скриншоты

ЦитатаDeadmauvlad писал:

• Первый цветной японский полнометражный анимационный фильм, а также первое аниме, которое было показано на территории США
• Сведение озвучки и субтитров by Deadmauvlad (Также спасибо за помощь Neko_FeliXXX)
• Кодомо (яп. 子供, «ребёнок») — метажанр аниме и манги, целевая аудитория которого — дети в возрасте до 10-11 лет. Данный жанр является одним из наиболее старых, так как первые аниме создавались именно для детской аудитории.



 

Вложения

  • 2,8 KB Просмотры: 0
    Личеров 0
    Сидеров 0
    Файлов 2
    Объем 1,4 GB

Привет!

Мы группа людей которые решили помочь другим в решении их проблем, а так же пользователям с поиском самых свежих и качественных инфопродуктов. За 4 с небольшим месяца мы создали этот форум на который заходят ежедневно тысячи человек и посещаемость постоянно растёт. Мы создали панель лицензирования для защиты PHP скриптов от воровства и SEO панель для мониторинга наших сайтов и выбора верной стратегии их развития. Мы надеемся что то что мы создали пригодится Вам и возможно Вы поможете нам развиваться и совершенствоваться вместе с Вами.

Статистика форума

Темы
404.590
Сообщения
461.469
Пользователи
80.290
Новый пользователь
khlkkk

Приложения форума для iOS и Android


У ркн там нет власти ;)
Приватные разговоры
Помощь Пользователи
    Вы не присоединились ни к одной комнате.