За последнюю неделю опубликовано 38 новых материалов.
Инструкция новичку Путеводитель по форуму Прокси для Telegram Показать подсказки , это бомба!

Скачать Легенда / Legend (1985) BDRemux 1080p от NNNB | P, P2, A | Director's Cut бесплатно через торрент

  • Поучаствуй (в качестве покупателя) в любых пяти совместных покупках (кроме завершённых и "Моментальных") и получи группу "Новичок" навсегда -> ссылка на раздел
  • Получай до 480 рублей за каждого приглашенного пользователя!
    представляем Вам очередное расширение партнерской программы, подробности описаны тут -> ссылка
  • 90% материалов доступно к скачиванию после простой регистрации!
    Если же ты хочешь скачивать материалы без требования оставлять отзывы то получи группу "Новичок", 10 способов повышения описаны тут -> ссылка
  • К сожалению количество битых ссылок растет и мы уже не можем их оперативно восстанавливать поэтому просим помощи у каждого нашего пользователя.
    С сегодняшнего дня, за каждую восстановленную ссылку мы заплатим Вам.
    Подробнее тут -> ссылка
  • Перенесем твои заслуги с другого ресурса!
    Мы понимаем как сложно прокачивать аккаунты на форумах, вроде раскачал аккаунт, а тут появляется ресурс в 100 раз круче но тоже с системой прокачки и снова качать аккаунт...
    Предлагаем вам перенести Ваши заслуги на другом подобном ресурсе к нам.
    Подробности описаны тут -> ссылка
  • Вы можете получать по 2.5% с каждой покупки и продажи на маркете! Подробности в теме Партнёрская программа
Если Вы не хотите скачивать, Вы всегда можетепосмотретьонлайн, просто нажмите кнопку ниже :

Открыть плеер

Torrent_Bot

Торрент-Бот
Бот форума
4 Окт 2016
93
156
20

Название: Легенда
Оригинальное название: Legend
Год выпуска: 1985
Жанр:Фэнтези, мелодрама, приключения
Выпущено: США, Великобритания, Embassy International Pictures, Legend Production Company, Twentieth Century Fox Film Corporation
Режиссер: Ридли Скотт
В ролях: Том Круз, Миа Сара, Тим Карри, Давид Беннент, Элис Плэйтен, Билли Барти, Корк Хабберт, Питер О’Фэррелл, Киран Шах
Перевод: Профессиональный многоголосый, Профессиональный двухголосый, Авторский одноголосый

Сюжет фильма:
Злые чары окутали волшебный лес фей и магов, диковинных существ и невиданных созданий. Здесь властвует зловещий Повелитель Тьмы, истребляющий неуловимых единорогов, чтобы повергнуть мир в хаос вечной ночи. Его коварные слуги — гоблины всюду творят свои черные дела, вселяя ужас в невинных обитателей сказочной страны, и теперь только мужественный лесной странник Джек и его отважные друзья смогут избавить свой удивительный мир от жестокого властелина подземного царства мрака, где томится возлюбленная Джека, прекрасная принцесса Лили. Дьявол пытается заполучить молодую невинную девушку. А парнишка пытается спасти Единорога, хранителя Света, от посягательств сил Зла.



Качество: BDRemux
Контейнер (Расширение): MKV
Видео: MPEG-4 AVC Video / 23047 kbps / 23,976 fps / 16:9 / High Profile 4.1
Аудио №1: русский / AC3 / 5.1 / 48 kHz / 448 kbps |Профессиональный двухголосый, D2Lab|
Аудио №2: русский / DTS-HD MA / 5.1 / 48 kHz / 3551 kbps / 24-bit (DTS Core: 5.1 / 48 kHz / 1509 kbps / 24-bit) |Профессиональный многоголосый|
Аудио №3: русский / AC3 / 5.1 / 48 kHz / 384 kbps |Авторский одноголосый, Визгунов|
Аудио №4: английский / DTS-HD MA / 5.1 / 48 kHz / 3640 kbps / 24-bit (DTS Core: 5.1 / 48 kHz / 1509 kbps / 24-bit)
Аудио №5: русский / AC3 / 2.0 / 48 kHz / 192 kbps |Comments (Rus)|
Аудио №6: английский / AC3 / 2.0 / 48 kHz / 192 kbps |Comments (Eng)|
Субтитры: Русские (2 вида), Английские
Навигация по главам (Чаптеры): есть (подписаны)
Продолжительность: 01:53:28

Релиз от: Сообщество:

MediaInfo
Format : Matroska
Format version : Version 2
File size : 24.9 GiB
Duration : 1 h 53 min
Overall bit rate mode : Variable
Overall bit rate : 31.5 Mb/s
Movie name : Legend.(1985).BDRemux.1080p.Director's Cut.[denis100]
Encoded date : UTC 2018-09-19 15:46:42
Writing application : mkvmerge v5.8.0 ('No Sleep / Pillow') built on Sep 2 2012 15:37:04
Writing library : libebml v1.2.3 + libmatroska v1.3.0

Video
ID : 1
Format : AVC
Format/Info : Advanced Video Codec
Format profile : [email protected]
Format settings : CABAC / 4 Ref Frames
Format settings, CABAC : Yes
Format settings, ReFrames : 4 frames
Codec ID : V_MPEG4/ISO/AVC
Duration : 1 h 53 min
Bit rate mode : Variable
Maximum bit rate : 33.0 Mb/s
Width : 1 920 pixels
Height : 1 080 pixels
Display aspect ratio : 16:9
Frame rate mode : Constant
Frame rate : 23.976 (24000/1001) FPS
Color space : YUV
Chroma subsampling : 4:2:0
Bit depth : 8 bits
Scan type : Progressive
Title : Legend.(1985).BDRemux.1080p.Director's Cut.[denis100]
Language : English
Default : Yes
Forced : No

Audio #1
ID : 2
Format : AC-3
Format/Info : Audio Coding 3
Codec ID : A_AC3
Duration : 1 h 53 min
Bit rate mode : Constant
Bit rate : 448 kb/s
Channel(s) : 6 channels
Channel positions : Front: L C R, Side: L R, LFE
Sampling rate : 48.0 kHz
Frame rate : 31.250 FPS (1536 SPF)
Bit depth : 16 bits
Compression mode : Lossy
Stream size : 364 MiB (1%)
Title : DVO, D2Lab
Language : Russian
Service kind : Complete Main
Default : Yes
Forced : No

Audio #2
ID : 3
Format : DTS
Format/Info : Digital Theater Systems
Format profile : MA / Core
Codec ID : A_DTS
Duration : 1 h 53 min
Bit rate mode : Variable / Constant
Bit rate : Unknown / 1 509 kb/s
Channel(s) : 6 channels
Channel positions : Front: L C R, Side: L R, LFE
Sampling rate : 48.0 kHz
Frame rate : 93.750 FPS (512 SPF)
Bit depth : 24 bits
Compression mode : Lossless / Lossy
Title : MVO
Language : Russian
Default : No
Forced : No

Audio #3
ID : 4
Format : AC-3
Format/Info : Audio Coding 3
Codec ID : A_AC3
Duration : 1 h 53 min
Bit rate mode : Constant
Bit rate : 384 kb/s
Channel(s) : 6 channels
Channel positions : Front: L C R, Side: L R, LFE
Sampling rate : 48.0 kHz
Frame rate : 31.250 FPS (1536 SPF)
Bit depth : 16 bits
Compression mode : Lossy
Delay relative to video : 1 s 18 ms
Stream size : 312 MiB (1%)
Title : AVO, Визгунов
Language : Russian
Service kind : Complete Main
Default : No
Forced : No

Audio #4
ID : 5
Format : DTS
Format/Info : Digital Theater Systems
Format profile : MA / Core
Codec ID : A_DTS
Duration : 1 h 53 min
Bit rate mode : Variable / Constant
Bit rate : Unknown / 1 509 kb/s
Channel(s) : 6 channels
Channel positions : Front: L C R, Side: L R, LFE
Sampling rate : 48.0 kHz
Frame rate : 93.750 FPS (512 SPF)
Bit depth : 24 bits
Compression mode : Lossless / Lossy
Language : English
Default : No
Forced : No

Audio #5
ID : 6
Format : AC-3
Format/Info : Audio Coding 3
Codec ID : A_AC3
Duration : 1 h 53 min
Bit rate mode : Constant
Bit rate : 192 kb/s
Channel(s) : 2 channels
Channel positions : Front: L R
Sampling rate : 48.0 kHz
Frame rate : 31.250 FPS (1536 SPF)
Bit depth : 16 bits
Compression mode : Lossy
Stream size : 156 MiB (1%)
Title : Comments (Rus)
Language : Russian
Service kind : Complete Main
Default : No
Forced : No

Audio #6
ID : 7
Format : AC-3
Format/Info : Audio Coding 3
Codec ID : A_AC3
Duration : 1 h 53 min
Bit rate mode : Constant
Bit rate : 192 kb/s
Channel(s) : 2 channels
Channel positions : Front: L R
Sampling rate : 48.0 kHz
Frame rate : 31.250 FPS (1536 SPF)
Bit depth : 16 bits
Compression mode : Lossy
Stream size : 156 MiB (1%)
Title : Comments (Eng)
Language : English
Service kind : Complete Main
Default : No
Forced : No

Text #1
ID : 8
Format : UTF-8
Codec ID : S_TEXT/UTF8
Codec ID/Info : UTF-8 Plain Text
Language : Russian
Default : No
Forced : No

Text #2
ID : 9
Format : UTF-8
Codec ID : S_TEXT/UTF8
Codec ID/Info : UTF-8 Plain Text
Title : SDH
Language : Russian
Default : No
Forced : No

Text #3
ID : 10
Format : UTF-8
Codec ID : S_TEXT/UTF8
Codec ID/Info : UTF-8 Plain Text
Language : English
Default : No
Forced : No

Menu
00:00:00.000 : en:Main Titles
00:02:11.590 : en:Darkness
00:05:14.981 : en:princess Lily
00:10:18.243 : en:Jack
00:14:42.799 : en:The Unicorns
00:23:43.464 : en:A World of Ice
00:30:28.410 : en:Gump & His Friends
00:37:56.608 : en:The Unicorns' Plight
00:52:03.662 : en:Meg Mucklebones
00:57:24.358 : en:prisoners
01:11:25.406 : en:One of Us
01:16:07.563 : en:The Dark Lord
01:19:46.615 : en:Jack's Plan
01:27:54.186 : en:The Bride of Darkness
01:34:46.014 : en:Sacrifice
01:39:44.395 : en:Darkness Denied
01:41:53.607 : en:promises to Keep
01:49:15.716 : en:End Titles
Скриншоты
 

Вложения

  • 125,7 KB Просмотры: 1
    Личеров 0
    Сидеров 0
    Файлов 1
    Объем 24,9 GB

Привет!

Мы группа людей которые решили помочь другим в решении их проблем, а так же пользователям с поиском самых свежих и качественных инфопродуктов. За 4 с небольшим месяца мы создали этот форум на который заходят ежедневно тысячи человек и посещаемость постоянно растёт. Мы создали панель лицензирования для защиты PHP скриптов от воровства и SEO панель для мониторинга наших сайтов и выбора верной стратегии их развития. Мы надеемся что то что мы создали пригодится Вам и возможно Вы поможете нам развиваться и совершенствоваться вместе с Вами.

Статистика форума

Темы
406.572
Сообщения
464.791
Пользователи
83.546
Новый пользователь
Sbas

Приложения форума для iOS и Android


У ркн там нет власти ;)
Приватные разговоры
Помощь Пользователи
    Вы не присоединились ни к одной комнате.