За последнюю неделю опубликовано 34 новых материалов.
Инструкция новичку Путеводитель по форуму Прокси для Telegram Показать подсказки , это бомба!

Скачать Ледовые пираты / The Ice Pirates (1984) BDRip 1080p | P бесплатно через торрент

  • Поучаствуй (в качестве покупателя) в любых пяти совместных покупках (кроме завершённых и "Моментальных") и получи группу "Новичок" навсегда -> ссылка на раздел
  • Получай до 480 рублей за каждого приглашенного пользователя!
    представляем Вам очередное расширение партнерской программы, подробности описаны тут -> ссылка
  • 90% материалов доступно к скачиванию после простой регистрации!
    Если же ты хочешь скачивать материалы без требования оставлять отзывы то получи группу "Новичок", 10 способов повышения описаны тут -> ссылка
  • К сожалению количество битых ссылок растет и мы уже не можем их оперативно восстанавливать поэтому просим помощи у каждого нашего пользователя.
    С сегодняшнего дня, за каждую восстановленную ссылку мы заплатим Вам.
    Подробнее тут -> ссылка
  • Перенесем твои заслуги с другого ресурса!
    Мы понимаем как сложно прокачивать аккаунты на форумах, вроде раскачал аккаунт, а тут появляется ресурс в 100 раз круче но тоже с системой прокачки и снова качать аккаунт...
    Предлагаем вам перенести Ваши заслуги на другом подобном ресурсе к нам.
    Подробности описаны тут -> ссылка
  • Вы можете получать по 2.5% с каждой покупки и продажи на маркете! Подробности в теме Партнёрская программа
Если Вы не хотите скачивать, Вы всегда можетепосмотретьонлайн, просто нажмите кнопку ниже :

Открыть плеер

Torrent_Bot

Торрент-Бот
Бот форума
4 Окт 2016
93
160
20
Информация о фильме
Название: Ледовые пираты
Оригинальное название: The Ice Pirates
Год выхода: 1984
Жанр: фантастика, боевик, комедия, приключения
Режиссер: Стюарт Рэффил
В ролях: Роберт Урих, Мэри Кросби, Майкл Д. Робертс, Анжелика Хьюстон, Джон Матушак, Рон Перлман, Джон Кэрредин, Натали Кор, Джереми Уэст, Брюс Виленч, Алан Кайу, Марсия Льюис, Дэрил Роач, Роберт Саймондс, Гари Брокетт, Иэн Эберкромби, Долорес Альбен, Хэнк Уорден, Кармен Филпи, Джон Гиллеспи

О фильме:
В далёком будущем после многочисленных межпланетных войн Галактика высохла и вода стала самым ценным веществом во вселенной, она является как товаром, так и деньгами. Злые Темплеры с планеты Митра установили полный контроль, над всеми оставшимися запасами воды продавая её богатым. И только немногочисленные группы мятежников борются с ними, нападая на космические корабли Темплеров и воруя с них бесценныё лед – за это их называют ледяные пираты. Принцесса Карина (Мэри Кросби) – избалованная девица выкупает пойманных космических пиратов Джейсона (Роберт Урич) и Роско (Майкл Д. Робертс). И вместе с ними отправляется на поиски «потерянной» планеты, которая по легенде содержит несметные запасы воды. К этой планете нужно приблизиться, только идя определённым курсом в противном случае, корабль навсегда затеряется во времени, так как планета находится в неком реальном или иллюзорном поле, искажающем время. Но даже путешествие этим специальным курсом не защищает от шуток времени.



Страна: США
Студия: JF Productions, Metro-Goldwyn-Mayer (MGM)
Продолжительность: 01:33:58
Перевод: Профессиональный многоголосый | СВ-Kадр по заказу ТНТ

Файл
Кодек: x.264
Качество: BDRip 1080p | The.Ice.Pirates.1984.1080p.BluRay.x264-RRH
Видео: MPEG-4 AVC, 1920x1080, 8453 Kбит/с, 23.976 кадр/с
Аудио #1: Русский ( АС3, 2ch, 256 Кбит/с, 48.0 KHz) Профессиональный (многоголосый, закадровый) СВ-Kадр по заказу ТНТ
Аудио #2: Английский ( АС3, 2ch, 256 Кбит/с, 48.0 KHz)
Субтитры: английские, немецкие
MediaInfo
Источник: The.Ice.Pirates.1984.1080p.BluRay.x264-RRH
General
Unique ID : 177748947798599054564146832237693086916 (0x85B933BDCCBD4E569943255FCE55ACC4)
Complete name : The.Ice.Pirates.1984.BDRip.1080p.mkv
Format : Matroska
Format version : Version 4 / Version 2
File size : 5.89 GiB
Duration : 1h 33mn
Overall bit rate : 8 965 Kbps
Encoded date : UTC 2018-09-22 23:47:36
Writing application : mkvmerge v7.1.0 ('Good Love') 64bit built on Jul 27 2014 13:06:55
Writing library : libebml v1.3.0 + libmatroska v1.4.1

Video
ID : 1
Format : AVC
Format/Info : Advanced Video Codec
Format profile : [email protected]
Format settings, CABAC : Yes
Format settings, ReFrames : 4 frames
Codec ID : V_MPEG4/ISO/AVC
Duration : 1h 33mn
Bit rate : 8 453 Kbps
Width : 1 920 pixels
Height : 1 080 pixels
Display aspect ratio : 16:9
Frame rate mode : Constant
Frame rate : 23.976 (24000/1001) fps
Color space : YUV
Chroma subsampling : 4:2:0
Bit depth : 8 bits
Scan type : Progressive
Bits/(Pixel*Frame) : 0.170
Stream size : 5.55 GiB (94%)
Writing library : x264 core 148 r2638 7599210
Encoding settings : cabac=1 / ref=4 / deblock=1:0:0 / analyse=0x3:0x113 / me=umh / subme=8 / psy=1 / psy_rd=1.00:0.00 / mixed_ref=1 / me_range=16 / chroma_me=1 / trellis=1 / 8x8dct=1 / cqm=0 / deadzone=21,11 / fast_pskip=1 / chroma_qp_offset=-2 / threads=12 / lookahead_threads=2 / sliced_threads=0 / nr=0 / decimate=1 / interlaced=0 / bluray_compat=0 / constrained_intra=0 / bframes=3 / b_pyramid=2 / b_adapt=2 / b_bias=0 / direct=3 / weightb=1 / open_gop=0 / weightp=2 / keyint=240 / keyint_min=23 / scenecut=40 / intra_refresh=0 / rc_lookahead=50 / rc=2pass / mbtree=1 / bitrate=8453 / ratetol=1.0 / qcomp=0.60 / qpmin=0 / qpmax=69 / qpstep=4 / cplxblur=20.0 / qblur=0.5 / vbv_maxrate=62500 / vbv_bufsize=78125 / nal_hrd=none / filler=0 / ip_ratio=1.40 / aq=1:1.00
Language : English
Default : Yes
Forced : No

Audio #1
ID : 2
Format : AC-3
Format/Info : Audio Coding 3
Mode extension : CM (complete main)
Format settings, Endianness : Big
Codec ID : A_AC3
Duration : 1h 33mn
Bit rate mode : Constant
Bit rate : 256 Kbps
Channel(s) : 2 channels
Channel positions : Front: L R
Sampling rate : 48.0 KHz
Frame rate : 31.250 fps (1536 spf)
Compression mode : Lossy
Stream size : 172 MiB (3%)
Title : MVO
Language : Russian
Default : Yes
Forced : No

Audio #2
ID : 3
Format : AC-3
Format/Info : Audio Coding 3
Mode extension : CM (complete main)
Format settings, Endianness : Big
Codec ID : A_AC3
Duration : 1h 33mn
Bit rate mode : Constant
Bit rate : 256 Kbps
Channel(s) : 2 channels
Channel positions : Front: L R
Sampling rate : 48.0 KHz
Frame rate : 31.250 fps (1536 spf)
Compression mode : Lossy
Stream size : 172 MiB (3%)
Language : English
Default : No
Forced : No

Text #1
ID : 4
Format : UTF-8
Codec ID : S_TEXT/UTF8
Codec ID/Info : UTF-8 Plain Text
Duration : 1h 29mn
Bit rate : 58 bps
Count of elements : 1425
Stream size : 38.3 KiB (0%)
Language : English
Default : No
Forced : No

Text #2
ID : 5
Format : UTF-8
Codec ID : S_TEXT/UTF8
Codec ID/Info : UTF-8 Plain Text
Duration : 1h 33mn
Bit rate : 67 bps
Count of elements : 1448
Stream size : 46.4 KiB (0%)
Language : German
Default : No
Forced : No

Menu
00:00:00.000 : en:00:00:00.000
00:05:13.230 : en:00:05:13.230
00:08:46.776 : en:00:08:46.776
00:11:59.385 : en:00:11:59.385
00:16:15.725 : en:00:16:15.725
00:20:08.374 : en:00:20:08.374
00:25:01.667 : en:00:25:01.667
00:27:14.758 : en:00:27:14.758
00:29:36.191 : en:00:29:36.191
00:35:25.290 : en:00:35:25.290
00:38:25.094 : en:00:38:25.094
00:40:34.849 : en:00:40:34.849
00:44:26.414 : en:00:44:26.414
00:49:11.407 : en:00:49:11.407
00:52:34.735 : en:00:52:34.735
00:57:30.072 : en:00:57:30.072
01:02:02.844 : en:01:02:02.844
01:06:47.253 : en:01:06:47.253
01:12:12.453 : en:01:12:12.453
01:16:53.526 : en:01:16:53.526
01:21:17.831 : en:01:21:17.831
01:25:09.688 : en:01:25:09.688
01:27:25.449 : en:01:27:25.449
01:29:51.052 : en:01:29:51.052
01:31:24.896 : en:01:31:24.896
Скриншоты
 

Вложения

  • 15,6 KB Просмотры: 1
    Личеров 0
    Сидеров 0
    Файлов 1
    Объем 5,9 GB

Привет!

Мы группа людей которые решили помочь другим в решении их проблем, а так же пользователям с поиском самых свежих и качественных инфопродуктов. За 4 с небольшим месяца мы создали этот форум на который заходят ежедневно тысячи человек и посещаемость постоянно растёт. Мы создали панель лицензирования для защиты PHP скриптов от воровства и SEO панель для мониторинга наших сайтов и выбора верной стратегии их развития. Мы надеемся что то что мы создали пригодится Вам и возможно Вы поможете нам развиваться и совершенствоваться вместе с Вами.

Статистика форума

Темы
406.601
Сообщения
464.986
Пользователи
84.260
Новый пользователь
KiraAbraam

Приложения форума для iOS и Android


У ркн там нет власти ;)
Приватные разговоры
Помощь Пользователи
    Вы не присоединились ни к одной комнате.