За последнюю неделю опубликовано 57 новых материалов.
Инструкция новичку Путеводитель по форуму Прокси для Telegram Показать подсказки , это бомба!

Скачать Леди в фургоне / The Lady In The Van (2015) BDRemux 1080p | P, P2 | iTunes бесплатно через торрент

  • Поучаствуй (в качестве покупателя) в любых пяти совместных покупках (кроме завершённых и "Моментальных") и получи группу "Новичок" навсегда -> ссылка на раздел
  • Получай до 480 рублей за каждого приглашенного пользователя!
    представляем Вам очередное расширение партнерской программы, подробности описаны тут -> ссылка
  • 90% материалов доступно к скачиванию после простой регистрации!
    Если же ты хочешь скачивать материалы без требования оставлять отзывы то получи группу "Новичок", 10 способов повышения описаны тут -> ссылка
  • К сожалению количество битых ссылок растет и мы уже не можем их оперативно восстанавливать поэтому просим помощи у каждого нашего пользователя.
    С сегодняшнего дня, за каждую восстановленную ссылку мы заплатим Вам.
    Подробнее тут -> ссылка
  • Перенесем твои заслуги с другого ресурса!
    Мы понимаем как сложно прокачивать аккаунты на форумах, вроде раскачал аккаунт, а тут появляется ресурс в 100 раз круче но тоже с системой прокачки и снова качать аккаунт...
    Предлагаем вам перенести Ваши заслуги на другом подобном ресурсе к нам.
    Подробности описаны тут -> ссылка
  • Вы можете получать по 2.5% с каждой покупки и продажи на маркете! Подробности в теме Партнёрская программа
Если Вы не хотите скачивать, Вы всегда можетепосмотретьонлайн, просто нажмите кнопку ниже :

Открыть плеер

Torrent_Bot

Торрент-Бот
Бот форума
4 Окт 2016
92
163
20

Название: Леди в фургоне
Оригинальное название: The Lady In The Van
Год выхода: 2015
Производство: Великобритания / BBC Films, TriStar Productions
Жанр: Драма, комедия, биография
Перевод: Профессиональный многоголосый, двухголосый закадровый
Продолжительность: 01:44:06

Режиссер: Николас Хайтнер
В ролях: Мэгги Смит, Джим Бродбент, Клер Хэммонд, Джордж Фентон, Алекс Дженнингс, Джейми Паркер, Дебора Файндлей, Роджер Аллам

Описание: История об эксцентричной лондонской старушке. Мэри Шеперд — бездомная леди, жившая в раздолбанном желтом фургоне и однажды припарковавшаяся напротив кэмденской квартиры Беннетта. Обещавшая не задерживаться больше трех месяцев, бабуля прожила под окнами писателя 15 лет, превратившись в любимицу района, местную достопримечательность и, в конечном счете, героиню пьесы Беннета 1999 года.


Формат: MKV
Качество: BDRemux 1080p
Видео : MPEG-4/AVC, 1920x1080, ~25193 kbps, 23.976 fps
Аудио 01: AC3, 6 ch, 384 kbps - Русский MVO (iTunes)
Аудио 02: AC3, 2 ch, 192 kbps - Русский DVO
Аудио 03: DTS-HD MA, 6 ch, 3224 kbps - Английский

Субтитры: Русские, английские





Mediainfo
General
Unique ID : 210144975185414415710592119202614574430 (0x9E187335A37BE59985A0EF84FB3F7D5E)
Complete name : H:Фильмы / The.Lady.in.the.Van.2015.BDREMUX.1080p.mkv
Format : Matroska
Format version : Version 4 / Version 2
File size : 21.1 GiB
Duration : 1h 44mn
Overall bit rate mode : Variable
Overall bit rate : 29.0 Mbps
Encoded date : UTC 2016-04-14 01:09:56
Writing application : mkvmerge v8.5.1 ('Where you lead I will follow') 32bit
Writing library : libebml v1.3.3 + libmatroska v1.4.4

Video
ID : 1
Format : AVC
Format/Info : Advanced Video Codec
Format profile : [email protected]
Format settings, CABAC : Yes
Format settings, ReFrames : 2 frames
Format settings, GOP : M=1, N=10
Codec ID : V_MPEG4/ISO/AVC
Duration : 1h 44mn
Bit rate mode : Variable
Bit rate : 25.2 Mbps
Width : 1 920 pixels
Height : 1 080 pixels
Display aspect ratio : 16:9
Frame rate mode : Constant
Frame rate : 23.976 (24000/1001) fps
Color space : YUV
Chroma subsampling : 4:2:0
Bit depth : 8 bits
Scan type : Progressive
Bits/(Pixel*Frame) : 0.507
Stream size : 18.3 GiB (87%)
Language : English
Default : Yes
Forced : No

Audio #1
ID : 2
Format : AC-3
Format/Info : Audio Coding 3
Mode extension : CM (complete main)
Format settings, Endianness : Big
Codec ID : A_AC3
Duration : 1h 44mn
Bit rate mode : Constant
Bit rate : 384 Kbps
Channel(s) : 6 channels
Channel positions : Front: L C R, Side: L R, LFE
Sampling rate : 48.0 KHz
Frame rate : 31.250 fps (1536 spf)
Compression mode : Lossy
Stream size : 286 MiB (1%)
Title : iTunes
Language : Russian
Default : Yes
Forced : No

Audio #2
ID : 3
Format : AC-3
Format/Info : Audio Coding 3
Mode extension : CM (complete main)
Format settings, Endianness : Big
Codec ID : A_AC3
Duration : 1h 44mn
Bit rate mode : Constant
Bit rate : 192 Kbps
Channel(s) : 2 channels
Channel positions : Front: L R
Sampling rate : 48.0 KHz
Frame rate : 31.250 fps (1536 spf)
Compression mode : Lossy
Stream size : 143 MiB (1%)
Title : DVO
Language : Russian
Default : No
Forced : No

Audio #3
ID : 4
Format : DTS
Format/Info : Digital Theater Systems
Format profile : MA / Core
Mode : 16
Format settings, Endianness : Big
Codec ID : A_DTS
Duration : 1h 44mn
Bit rate mode : Variable / Constant
Bit rate : 3 224 Kbps / 1 509 Kbps
Channel(s) : 6 channels
Channel positions : Front: L C R, Side: L R, LFE
Sampling rate : 48.0 KHz
Frame rate : 93.750 fps (512 spf)
Bit depth : 24 bits
Compression mode : Lossless / Lossy
Stream size : 2.34 GiB (11%)
Language : English
Default : No
Forced : No

Text #1
ID : 5
Format : UTF-8
Codec ID : S_TEXT/UTF8
Codec ID/Info : UTF-8 Plain Text
Duration : 1h 42mn
Bit rate : 101 bps
Count of elements : 1357
Stream size : 75.8 KiB (0%)
Language : Russian
Default : No
Forced : No

Text #2
ID : 6
Format : UTF-8
Codec ID : S_TEXT/UTF8
Codec ID/Info : UTF-8 Plain Text
Duration : 1h 37mn
Bit rate : 67 bps
Count of elements : 1343
Stream size : 48.4 KiB (0%)
Language : English
Default : No
Forced : No

Menu
00:00:00.000 : en:00:00:00.000
00:07:41.753 : en:00:07:41.753
00:14:22.945 : en:00:14:22.945
00:20:50.207 : en:00:20:50.207
00:28:09.313 : en:00:28:09.313
00:34:45.166 : en:00:34:45.166
00:40:08.615 : en:00:40:08.615
00:46:09.934 : en:00:46:09.934
00:52:03.662 : en:00:52:03.662
00:59:00.579 : en:00:59:00.579
01:04:05.592 : en:01:04:05.592
01:10:08.413 : en:01:10:08.413
01:17:26.642 : en:01:17:26.642
01:25:11.440 : en:01:25:11.440
01:30:25.670 : en:01:30:25.670
01:37:23.755 : en:01:37:23.755
Скриншоты
 

Вложения

  • 53,6 KB Просмотры: 0
    Личеров 0
    Сидеров 0
    Файлов 1
    Объем 21,1 GB

Привет!

Мы группа людей которые решили помочь другим в решении их проблем, а так же пользователям с поиском самых свежих и качественных инфопродуктов. За 4 с небольшим месяца мы создали этот форум на который заходят ежедневно тысячи человек и посещаемость постоянно растёт. Мы создали панель лицензирования для защиты PHP скриптов от воровства и SEO панель для мониторинга наших сайтов и выбора верной стратегии их развития. Мы надеемся что то что мы создали пригодится Вам и возможно Вы поможете нам развиваться и совершенствоваться вместе с Вами.

Статистика форума

Темы
406.698
Сообщения
465.162
Пользователи
84.787
Новый пользователь
Freckle

Приложения форума для iOS и Android


У ркн там нет власти ;)
Приватные разговоры
Помощь Пользователи
    Вы не присоединились ни к одной комнате.