За последнюю неделю опубликовано 57 новых материалов.
Инструкция новичку Путеводитель по форуму Прокси для Telegram Показать подсказки , это бомба!

Скачать Леди Баг и Супер-кот / Miraculous: Tales of Ladybug & Cat Noir [S03] (2018-2019) WEB-DL 1080p | D бесплатно через торрент

  • Поучаствуй (в качестве покупателя) в любых пяти совместных покупках (кроме завершённых и "Моментальных") и получи группу "Новичок" навсегда -> ссылка на раздел
  • Получай до 480 рублей за каждого приглашенного пользователя!
    представляем Вам очередное расширение партнерской программы, подробности описаны тут -> ссылка
  • 90% материалов доступно к скачиванию после простой регистрации!
    Если же ты хочешь скачивать материалы без требования оставлять отзывы то получи группу "Новичок", 10 способов повышения описаны тут -> ссылка
  • К сожалению количество битых ссылок растет и мы уже не можем их оперативно восстанавливать поэтому просим помощи у каждого нашего пользователя.
    С сегодняшнего дня, за каждую восстановленную ссылку мы заплатим Вам.
    Подробнее тут -> ссылка
  • Перенесем твои заслуги с другого ресурса!
    Мы понимаем как сложно прокачивать аккаунты на форумах, вроде раскачал аккаунт, а тут появляется ресурс в 100 раз круче но тоже с системой прокачки и снова качать аккаунт...
    Предлагаем вам перенести Ваши заслуги на другом подобном ресурсе к нам.
    Подробности описаны тут -> ссылка
  • Вы можете получать по 2.5% с каждой покупки и продажи на маркете! Подробности в теме Партнёрская программа
Если Вы не хотите скачивать, Вы всегда можетепосмотретьонлайн, просто нажмите кнопку ниже :

Открыть плеер

Torrent_Bot

Торрент-Бот
Бот форума
4 Окт 2016
92
160
20



Информация о фильме
Название: Леди Баг и Супер-кот
Оригинальное название: Miraculous: Tales of Ladybug & Cat Noir
Год выхода: 2018-2019
Жанр: детский, семейный, приключения, комедия
Режиссер: Томас Аструк / Thomas Astruc
В ролях: Anouck Hautbois, Benjamin Bollen, Antoine Tome, Marie Nonenmacher, Thierry Kazazian, Fanny Bloc, Marie Chevalot, Alexandre N'guyen

О фильме:
Адриан и Маринетт — старшеклассники, почти как все остальные. При малейшей угрозе Парижу они становятся ЛедиБаг и Котом Нуаром. Их миссия — захватить акум (тёмных бабочек), которые превращают людей в супер-злодеев. Когда герои объединяются, каждый из них не знает истинной личности другого. Маринетт не знает, что Кот Нуар на самом деле Адриан — мальчик в которого она тайно влюблена, а Адриан, чьё сердце бьётся ради ЛедиБаг, не знает, что под маской супер-героини скрывается милая и ветреная одноклассница.


Страна: Франция
Продолжительность: ~00:22:00 серия
Перевод: Дубляж

Файл
Кодек: AVC / AC3
Качество: WEB-DL 1080p
Видео: AVC, 1920x1080p, 25fps, ~5000kbps
Аудио 1: AC3, 48 000 Hz, 2 channels, 192 kbps [Русский дубляж Канал Disney]
Аудио 2: AC3, 48 000 Hz, 2 channels, 192 kbps [Украинский дубляж]
Аудио 3: E_AC3, 48 000 Hz, 6 channels, 640 kbps [Французский дубляж]
Аудио 4: E_AC3, 48 000 Hz, 6 channels, 640 kbps [Английский дубляж]
Субтитры: английские

Screens
MI
Полное имя : H:TORRENTSЛеди Баг и Супер-Кот – Третий сезон (Русский, Украинский, Английский, Французский) by DanInteractiveЛеди Баг и Супер-Кот – Сезон 3, Эпизод 9 – Обливио [1080p].mkv
Формат : Matroska
Версия формата : Version 4 / Version 2
Размер файла : 901 Мбайт
Продолжительность : 21 м. 44 с.
Общий поток : 5791 Кбит/сек
Название фильма : Miraculous S03E10 – Oblivio
Дата кодирования : UTC 2019-10-09 00:35:02
Программа кодирования : mkvmerge v9.9.0 ('Pick Up') 64bit
Библиотека кодирования : libebml v1.3.4 + libmatroska v1.4.5

Видео
Идентификатор : 1
Формат : AVC
Формат/Информация : Advanced Video Codec
Профиль формата : [email protected]
Настройки формата : CABAC / 3 Ref Frames
Параметр CABAC формата : Да
Параметр RefFrames формата : 3 кадра
Идентификатор кодека : V_MPEG4/ISO/AVC
Продолжительность : 21 м. 44 с.
Битрейт : 4126 Кбит/сек
Ширина : 1920 пикселей
Высота : 1080 пикселей
Соотношение сторон : 16:9
Режим частоты кадров : Постоянный
Частота кадров : 25,000 кадров/сек
Цветовое пространство : YUV
Субдискретизация насыщенности : 4:2:0
Битовая глубина : 8 бит
Тип развёртки : Прогрессивная
Бит/(Пиксели*Кадры) : 0.080
Размер потока : 641 Мбайт (71%)
Default : Да
Forced : Нет

Аудио #1
Идентификатор : 2
Формат : AC-3
Формат/Информация : Audio Coding 3
Идентификатор кодека : A_AC3
Продолжительность : 21 м. 44 с.
Вид битрейта : Постоянный
Битрейт : 192 Кбит/сек
Каналы : 2 канала
Расположение каналов : Front: L R
Частота : 48,0 КГц
Частота кадров : 31,250 кадров/сек (1536 SPF)
Битовая глубина : 16 бит
Метод сжатия : С потерями
Размер потока : 29,8 Мбайт (3%)
Язык : Russian
ServiceKind/String : Complete Main
Default : Да
Forced : Нет

Аудио #2
Идентификатор : 3
Формат : AC-3
Формат/Информация : Audio Coding 3
Идентификатор кодека : A_AC3
Продолжительность : 21 м. 44 с.
Вид битрейта : Постоянный
Битрейт : 192 Кбит/сек
Каналы : 2 канала
Расположение каналов : Front: L R
Частота : 48,0 КГц
Частота кадров : 31,250 кадров/сек (1536 SPF)
Битовая глубина : 16 бит
Метод сжатия : С потерями
Размер потока : 29,8 Мбайт (3%)
Язык : Ukrainian
ServiceKind/String : Complete Main
Default : Нет
Forced : Нет

Аудио #3
Идентификатор : 4
Формат : E-AC-3
Формат/Информация : Enhanced Audio Coding 3
Идентификатор кодека : A_EAC3
Продолжительность : 21 м. 44 с.
Вид битрейта : Постоянный
Битрейт : 640 Кбит/сек
Каналы : 6 каналов
Расположение каналов : Front: L C R, Side: L R, LFE
Частота : 48,0 КГц
Частота кадров : 187,500 кадров/сек (256 SPF)
Метод сжатия : С потерями
Размер потока : 99,5 Мбайт (11%)
Язык : French
ServiceKind/String : Complete Main
Default : Нет
Forced : Нет

Аудио #4
Идентификатор : 5
Формат : E-AC-3
Формат/Информация : Enhanced Audio Coding 3
Идентификатор кодека : A_EAC3
Продолжительность : 21 м. 44 с.
Вид битрейта : Постоянный
Битрейт : 640 Кбит/сек
Каналы : 6 каналов
Расположение каналов : Front: L C R, Side: L R, LFE
Частота : 48,0 КГц
Частота кадров : 187,500 кадров/сек (256 SPF)
Метод сжатия : С потерями
Размер потока : 99,5 Мбайт (11%)
Язык : English
ServiceKind/String : Complete Main
Default : Нет
Forced : Нет

Текст
Идентификатор : 6
Формат : UTF-8
Идентификатор кодека : S_TEXT/UTF8
Идентификатор кодека/Информация : UTF-8 Plain Text
Продолжительность : 21 м. 9 с.
Битрейт : 84 бит/сек
ElementCount : 298
Размер потока : 13,1 Кбайт (0%)
Default : Нет
Forced : Нет
 

Вложения

  • 66,1 KB Просмотры: 0
    Личеров 0
    Сидеров 0
    Файлов 26
    Объем 24,6 GB

Привет!

Мы группа людей которые решили помочь другим в решении их проблем, а так же пользователям с поиском самых свежих и качественных инфопродуктов. За 4 с небольшим месяца мы создали этот форум на который заходят ежедневно тысячи человек и посещаемость постоянно растёт. Мы создали панель лицензирования для защиты PHP скриптов от воровства и SEO панель для мониторинга наших сайтов и выбора верной стратегии их развития. Мы надеемся что то что мы создали пригодится Вам и возможно Вы поможете нам развиваться и совершенствоваться вместе с Вами.

Статистика форума

Темы
406.651
Сообщения
465.096
Пользователи
84.640
Новый пользователь
kvach

Приложения форума для iOS и Android


У ркн там нет власти ;)
Приватные разговоры
Помощь Пользователи
    Вы не присоединились ни к одной комнате.