За последнюю неделю опубликовано 59 новых материалов.
Инструкция новичку Путеводитель по форуму Прокси для Telegram Показать подсказки , это бомба!

Скачать Lady Gaga - Chromatica [24bit Hi-Res] (2020) FLAC бесплатно через торрент

  • Поучаствуй (в качестве покупателя) в любых пяти совместных покупках (кроме завершённых и "Моментальных") и получи группу "Новичок" навсегда -> ссылка на раздел
  • Получай до 480 рублей за каждого приглашенного пользователя!
    представляем Вам очередное расширение партнерской программы, подробности описаны тут -> ссылка
  • 90% материалов доступно к скачиванию после простой регистрации!
    Если же ты хочешь скачивать материалы без требования оставлять отзывы то получи группу "Новичок", 10 способов повышения описаны тут -> ссылка
  • К сожалению количество битых ссылок растет и мы уже не можем их оперативно восстанавливать поэтому просим помощи у каждого нашего пользователя.
    С сегодняшнего дня, за каждую восстановленную ссылку мы заплатим Вам.
    Подробнее тут -> ссылка
  • Перенесем твои заслуги с другого ресурса!
    Мы понимаем как сложно прокачивать аккаунты на форумах, вроде раскачал аккаунт, а тут появляется ресурс в 100 раз круче но тоже с системой прокачки и снова качать аккаунт...
    Предлагаем вам перенести Ваши заслуги на другом подобном ресурсе к нам.
    Подробности описаны тут -> ссылка
  • Вы можете получать по 2.5% с каждой покупки и продажи на маркете! Подробности в теме Партнёрская программа

Torrent_Bot

Торрент-Бот
Бот форума
4 Окт 2016
92
163
20



Исполнитель: Lady Gaga | Название: Chromatica | Год: 2020 | Страна: USA
Жанр: Pop, Dance, Electronic
Продолжительность: 00:42:59 | Битрейт аудио: Lossless | Формат/Кодек: FLAC
Разрядность: 24/48 | Количество каналов: 2.0
Тип рипа: tracks


1. Chromatica I (01:00)
2. Alice (02:57)
3. Stupid Love (03:13)
4. Rain On Me (feat. Ariana Grande) (03:02)
5. Free Woman (03:11)
6. Fun Tonight (02:53)
7. Chromatica II (00:41)
8. 911 (02:52)
9. Plastic Doll (03:41)
10. Sour Candy (feat. Blackpink) (02:37)
11. Enigma (02:59)
12. Replay (03:06)
13. Chromatica III (00:27)
14. Sine From Above (feat. Elton John) (04:04)
15. 1000 Doves (03:35)
16. Babylon (02:41)

Дополнительная информация:
Леди Гага выпустила новый альбом «Chromatica»
В альбом вошло 16 треков, включая уже известные синглы «Stupid Love», «Rain On Me» с Арианой Гранде и «Sour Candy» с K-pop группой Blackpink. Альбом представлен в стандартном и делюкс издании. Стандартная версия включает в себя 16 треков. В делюкс издание альбома войдет еще 4 бонусных трека и книга в твердом переплёте.
Выход альбома был намечен на 10 апреля 2020 года, но был перенесен на более поздний срок из-за пандемии коронавируса.Теперь же пластинка вышла не только в цифровом формате, но и на разноцветных винилах, компакт-дисках и кассетах.
DR
foobar2000 1.5 / Замер динамического диапазона (DR) 1.1.1
Дата отчёта: 2020-05-29 17:08:38

--------------------------------------------------------------------------------
Анализ: Lady Gaga / Chromatica
--------------------------------------------------------------------------------

DR Пики RMS Продолжительность трека
--------------------------------------------------------------------------------
DR8 -0.20 дБ -10.28 дБ 1:00 01-Chromatica I
DR5 -0.20 дБ -6.62 дБ 2:58 02-Alice
DR6 -0.20 дБ -6.91 дБ 3:14 03-Stupid Love
DR5 -0.20 дБ -6.96 дБ 3:02 04-Rain On Me
DR4 -0.20 дБ -6.83 дБ 3:11 05-Free Woman
DR5 -0.20 дБ -8.24 дБ 2:53 06-Fun Tonight
DR9 -0.20 дБ -13.39 дБ 0:42 07-Chromatica II
DR5 -0.20 дБ -6.91 дБ 2:52 08-911
DR5 -0.20 дБ -6.90 дБ 3:42 09-Plastic Doll
DR4 -0.20 дБ -5.70 дБ 2:38 10-Sour Candy
DR5 -0.20 дБ -7.02 дБ 3:00 11-Enigma
DR4 -0.20 дБ -6.22 дБ 3:07 12-Replay
DR11 -0.20 дБ -14.33 дБ 0:28 13-Chromatica III
DR5 -0.20 дБ -8.44 дБ 4:05 14-Sine From Above
DR5 -0.20 дБ -7.53 дБ 3:36 15-1000 Doves
DR5 -0.20 дБ -6.58 дБ 2:42 16-Babylon
--------------------------------------------------------------------------------

Количество треков: 16
Реальные значения DR: DR6

Частота: 48000 Гц
Каналов: 2
Разрядность: 24
Битрейт: 1778 кбит/с
Кодек: FLAC
================================================================================
 

Вложения

  • 12,6 KB Просмотры: 0
    Личеров 0
    Сидеров 0
    Файлов 18
    Объем 553,2 MB

Привет!

Мы группа людей которые решили помочь другим в решении их проблем, а так же пользователям с поиском самых свежих и качественных инфопродуктов. За 4 с небольшим месяца мы создали этот форум на который заходят ежедневно тысячи человек и посещаемость постоянно растёт. Мы создали панель лицензирования для защиты PHP скриптов от воровства и SEO панель для мониторинга наших сайтов и выбора верной стратегии их развития. Мы надеемся что то что мы создали пригодится Вам и возможно Вы поможете нам развиваться и совершенствоваться вместе с Вами.

Статистика форума

Темы
406.678
Сообщения
465.125
Пользователи
84.737
Новый пользователь
Mo0dak

Приложения форума для iOS и Android


У ркн там нет власти ;)
Приватные разговоры
Помощь Пользователи
    Вы не присоединились ни к одной комнате.