За последнюю неделю опубликовано 33 новых материалов.
Инструкция новичку Путеводитель по форуму Прокси для Telegram Показать подсказки , это бомба!

Скачать Кука (2007) BDRip 1080p от KORSAR бесплатно через торрент

  • Поучаствуй (в качестве покупателя) в любых пяти совместных покупках (кроме завершённых и "Моментальных") и получи группу "Новичок" навсегда -> ссылка на раздел
  • Получай до 480 рублей за каждого приглашенного пользователя!
    представляем Вам очередное расширение партнерской программы, подробности описаны тут -> ссылка
  • 90% материалов доступно к скачиванию после простой регистрации!
    Если же ты хочешь скачивать материалы без требования оставлять отзывы то получи группу "Новичок", 10 способов повышения описаны тут -> ссылка
  • К сожалению количество битых ссылок растет и мы уже не можем их оперативно восстанавливать поэтому просим помощи у каждого нашего пользователя.
    С сегодняшнего дня, за каждую восстановленную ссылку мы заплатим Вам.
    Подробнее тут -> ссылка
  • Перенесем твои заслуги с другого ресурса!
    Мы понимаем как сложно прокачивать аккаунты на форумах, вроде раскачал аккаунт, а тут появляется ресурс в 100 раз круче но тоже с системой прокачки и снова качать аккаунт...
    Предлагаем вам перенести Ваши заслуги на другом подобном ресурсе к нам.
    Подробности описаны тут -> ссылка
  • Вы можете получать по 2.5% с каждой покупки и продажи на маркете! Подробности в теме Партнёрская программа
Если Вы не хотите скачивать, Вы всегда можетепосмотретьонлайн, просто нажмите кнопку ниже :

Открыть плеер

Torrent_Bot

Торрент-Бот
Бот форума
4 Окт 2016
93
160
20
Информация о фильме
Название: Кука
Год выпуска: 2007
Жанр:Драма
Режиссер: Ярослав Чеважевский
В ролях: Анастасия Добрынина, Дина Корзун, Павел Деревянко, Марина Голуб, Александр Половцев, Дмитрий Дюжев, Юрий Колокольников, Андрей Ильин, Анна Ардова, Ирина Купченко, Игорь Савочкин

О фильме: Лене 38 лет. Жизнь, казалось бы, налажена — Москва, карьера, «престижный» бойфренд… Но Лена сознает, что это — путь в никуда, что при внешнем благополучии она потеряла что-то очень важное и что пришла пора, наконец, пересмотреть свою жизнь. Либо сейчас, либо уже никогда… Кука живет в Петербурге совершенно одна. Она очень смышленая и очень взрослая. Кука все делает сама — и в магазин ходит, и еду готовит, и за домом следит. Кука смелая. Куке — 6 лет. Однажды Лена и Кука встречаются.



Выпущено: Россия, Staralis Film Company
Продолжительность: 01:44:37
Перевод: Не требуется

Файл
Качество: BDRip 1080p
Видео: MPEG-4 AVC, 8983 Кбит/сек, 1920x1080, 23.976 Кадра/сек
Аудио: AC3, 6 каналов, 640 Кбит/сек
Субтитры: Нет
Навигация по главам: Есть

Релиз от:

Скриншоты

MediaInfo
x264 [info]: frame I:849 Avg QP:15.01 size: 241520
x264 [info]: frame P:35390 Avg QP:18.26 size: 89477
x264 [info]: frame B:114261 Avg QP:20.24 size: 30783

======================================

Общее
Уникальный идентификатор : 251980785476940173347786545079587726046 (0xBD91BBE879686EB092B65EE1475462DE)
Полное имя : Kuka.2007.BDRip.1080p.KORSAR.mkv
Формат : Matroska
Версия формата : Version 2
Размер файла : 7,03 Гбайт
Продолжительность : 1 ч. 44 м.
Общий поток : 9621 Кбит/сек
Название фильма : Kuka.2007.BDRip.1080p.KORSAR
Дата кодирования : UTC 2016-12-24 11:36:07
Программа кодирования : mkvmerge v3.4.0 ('Rapunzel') сборка от May 15 2010 09:38:20
Библиотека кодирования : libebml v0.8.0 + libmatroska v0.9.0

Видео
Идентификатор : 1
Формат : AVC
Формат/Информация : Advanced Video Codec
Профиль формата : [email protected]
Параметр CABAC формата : Да
Параметр RefFrames формата : 4 кадра
Идентификатор кодека : V_MPEG4/ISO/AVC
Продолжительность : 1 ч. 44 м.
Битрейт : 8983 Кбит/сек
Ширина : 1920 пикселей
Высота : 1080 пикселей
Соотношение сторон : 16:9
Режим частоты кадров : Постоянный
Частота кадров : 23,976 (24000/1001) кадра/сек
Цветовое пространство : YUV
Субдискретизация насыщенности : 4:2:0
Битовая глубина : 8 бит
Тип развёртки : Прогрессивная
Бит/(Пиксели*Кадры) : 0.181
Размер потока : 6,42 Гбайт (91%)
Библиотека кодирования : x264 core 148 r2721kMod 72d53ab
Настройки программы : cabac=1 / ref=4 / deblock=1:-3:-3 / analyse=0x3:0x113 / me=esa / subme=11 / psy=1 / fade_compensate=0.00 / psy_rd=1.00:0.00 / mixed_ref=1 / me_range=48 / chroma_me=1 / trellis=2 / 8x8dct=1 / cqm=0 / deadzone=21,11 / fast_pskip=0 / chroma_qp_offset=-2 / threads=6 / lookahead_threads=1 / sliced_threads=0 / nr=0 / decimate=0 / interlaced=0 / bluray_compat=0 / constrained_intra=0 / fgo=0 / bframes=16 / b_pyramid=2 / b_adapt=2 / b_bias=0 / direct=3 / weightb=1 / open_gop=0 / weightp=2 / keyint=250 / keyint_min=23 / scenecut=40 / intra_refresh=0 / rc_lookahead=60 / rc=2pass / mbtree=1 / bitrate=8983 / ratetol=1.0 / qcomp=0.60 / qpmin=0 / qpmax=69 / qpstep=4 / cplxblur=20.0 / qblur=0.5 / vbv_maxrate=50000 / vbv_bufsize=62500 / nal_hrd=none / filler=0 / ip_ratio=1.40 / aq=3:0.90
Default : Нет
Forced : Нет
Цветовой диапазон : Limited
Основные цвета : BT.709
Характеристики трансфера : BT.709
Коэффициенты матрицы : BT.709

Аудио
Идентификатор : 2
Формат : AC-3
Формат/Информация : Audio Coding 3
Параметр Endianness формата : Big
Идентификатор кодека : A_AC3
Продолжительность : 1 ч. 44 м.
Вид битрейта : Постоянный
Битрейт : 640 Кбит/сек
Каналы : 6 каналов
Расположение каналов : Front: L C R, Side: L R, LFE
Частота : 48,0 КГц
Частота кадров : 31,250 кадров/сек (1536 SPF)
Битовая глубина : 16 бит
Метод сжатия : С потерями
Размер потока : 479 Мбайт (7%)
Язык : Russian
Default : Да
Forced : Нет

Меню
00:00:00.000 : en:
00:07:50.470 : en:
00:12:55.566 : en:
00:18:29.650 : en:
00:23:13.892 : en:
00:28:52.147 : en:
00:34:37.867 : en:
00:41:25.483 : en:
00:47:59.710 : en:
00:54:21.091 : en:
01:02:33.416 : en:
01:10:08.245 : en:
01:19:01.862 : en:
01:24:34.986 : en:
01:31:21.976 : en:
01:39:39.014 : en:
 

Вложения

  • 36,1 KB Просмотры: 1
    Личеров 0
    Сидеров 0
    Файлов 1
    Объем 7 GB

Привет!

Мы группа людей которые решили помочь другим в решении их проблем, а так же пользователям с поиском самых свежих и качественных инфопродуктов. За 4 с небольшим месяца мы создали этот форум на который заходят ежедневно тысячи человек и посещаемость постоянно растёт. Мы создали панель лицензирования для защиты PHP скриптов от воровства и SEO панель для мониторинга наших сайтов и выбора верной стратегии их развития. Мы надеемся что то что мы создали пригодится Вам и возможно Вы поможете нам развиваться и совершенствоваться вместе с Вами.

Статистика форума

Темы
406.599
Сообщения
464.995
Пользователи
84.343
Новый пользователь
Евгений5757

Приложения форума для iOS и Android


У ркн там нет власти ;)
Приватные разговоры
Помощь Пользователи
    Вы не присоединились ни к одной комнате.