За последнюю неделю опубликовано 47 новых материалов.
Инструкция новичку Путеводитель по форуму Прокси для Telegram Показать подсказки , это бомба!

Скачать Кто смеётся последним (1954) DVB от AND03AND бесплатно через торрент

  • Поучаствуй (в качестве покупателя) в любых пяти совместных покупках (кроме завершённых и "Моментальных") и получи группу "Новичок" навсегда -> ссылка на раздел
  • Получай до 480 рублей за каждого приглашенного пользователя!
    представляем Вам очередное расширение партнерской программы, подробности описаны тут -> ссылка
  • 90% материалов доступно к скачиванию после простой регистрации!
    Если же ты хочешь скачивать материалы без требования оставлять отзывы то получи группу "Новичок", 10 способов повышения описаны тут -> ссылка
  • К сожалению количество битых ссылок растет и мы уже не можем их оперативно восстанавливать поэтому просим помощи у каждого нашего пользователя.
    С сегодняшнего дня, за каждую восстановленную ссылку мы заплатим Вам.
    Подробнее тут -> ссылка
  • Перенесем твои заслуги с другого ресурса!
    Мы понимаем как сложно прокачивать аккаунты на форумах, вроде раскачал аккаунт, а тут появляется ресурс в 100 раз круче но тоже с системой прокачки и снова качать аккаунт...
    Предлагаем вам перенести Ваши заслуги на другом подобном ресурсе к нам.
    Подробности описаны тут -> ссылка
  • Вы можете получать по 2.5% с каждой покупки и продажи на маркете! Подробности в теме Партнёрская программа
Если Вы не хотите скачивать, Вы всегда можетепосмотретьонлайн, просто нажмите кнопку ниже :

Открыть плеер

Torrent_Bot

Торрент-Бот
Бот форума
4 Окт 2016
90
168
20
Информация о фильме
Название: Кто смеётся последним
Год выхода: 1954
Жанр: сатирическая комедия
Режиссер: Владимир Корш-Саблин
В ролях: Леонид Рахленко, Лидия Шинко, Глеб Глебов, Владимир Владомирский, Лилия Дроздова, Иван Шатило, Борис Платонов, Зинаида Броварская, Лидия Ржецкая, Генрих Григонис, Павел Молчанов, Татьяна Алексеева, Эдуард Шапко, Галина Роксанова, Олимпиада Шах-Парон, Б. Ямпольский

О фильме:
По мотивам одноименной сатирической комедии К.Крапивы, о проходимцах и подхалимах, проникших в научные учреждения. В центре фильма - образ лжеученого Горлохватского и его пособников Туляги и Зелкина.

Доп. информация:
Сценарист: Кондрат Крапив
Оператор: Александр Гинцбург
Композитор: Дмитрий Каминский
Художники: Евгений Ганкин, Армен Григорьянц
Производство: Беларусьфильм
Премьера: 31 января 1955 (кино)



Благодарность:Bartimeyse за оказанную помощь с данной раздачей и другими, а так же помощь с сравнением.
За что ему большое спасибо!

Запись потока *.ts с наземного цифрового телеканала "Беларусь 3", ремукс в *.mkv программой VideoReDo.

Синхронизация звука без перекодировки mkvmerge v8.5.1


Страна: СССР
Студия: Беларусьфильм
Продолжительность: 01:33:45
Перевод: не требует

Файл
Кодек: AVC (H264)
Качество: DVB
Видео: AVC (H264), 720x576 (4:3), 25 fps, 2 177 Kbps
Звук: MP2, 256 kbps, 2 channels, 48 kHz

Семпл

MediaInfo
General
Unique ID : 201877979823253807037891902859328809031 (0x97E048DE855ED881853945EF8146E847)
Complete name : D:Новая земля 2Художественные фильмыКто смеется последним (1954)Кто смеется последним (1954).mkv
Format : Matroska
Format version : Version 4 / Version 2
File size : 1.63 GiB
Duration : 1h 33mn
Overall bit rate : 2 482 Kbps
Encoded date : UTC 2016-03-10 17:36:19
Writing application : mkvmerge v8.5.1 ('Where you lead I will follow') 32bit
Writing library : libebml v1.3.3 + libmatroska v1.4.4

Video
ID : 1
Format : AVC
Format/Info : Advanced Video Codec
Format profile : [email protected]
Format settings, CABAC : Yes
Format settings, ReFrames : 4 frames
Format settings, GOP : M=4, N=24
Codec ID : V_MPEG4/ISO/AVC
Duration : 1h 33mn
Bit rate : 2 177 Kbps
Width : 720 pixels
Height : 576 pixels
Display aspect ratio : 4:3
Original display aspect ratio : 4:3
Frame rate mode : Constant
Frame rate : 25.000 fps
Standard : PAL
Color space : YUV
Chroma subsampling : 4:2:0
Bit depth : 8 bits
Scan type : MBAFF
Scan order : Top Field First
Bits/(Pixel*Frame) : 0.210
Stream size : 1.43 GiB (88%)
Default : Yes
Forced : No
Color primaries : BT.601 PAL
Transfer characteristics : BT.470 System B, BT.470 System G
Matrix coefficients : BT.601
Color range : Limited
DURATION : 01:33:45.400000000
NUMBER_OF_FRAMES : 140635
NUMBER_OF_BYTES : 1564027784
_STATISTICS_WRITING_APP : mkvmerge v8.5.1 ('Where you lead I will follow') 32bit
_STATISTICS_WRITING_DATE_UTC : 2016-03-10 17:36:19
_STATISTICS_TAGS : BPS DURATION NUMBER_OF_FRAMES NUMBER_OF_BYTES

Audio
ID : 2
Format : MPEG Audio
Format version : Version 1
Format profile : Layer 2
Codec ID : A_MPEG/L2
Codec ID/Hint : MP2
Duration : 1h 33mn
Bit rate mode : Constant
Bit rate : 256 Kbps
Channel(s) : 2 channels
Sampling rate : 48.0 KHz
Compression mode : Lossy
Delay relative to video : 150ms
Stream size : 172 MiB (10%)
Language : English
Default : Yes
Forced : No
DURATION : 01:33:45.384000000
NUMBER_OF_FRAMES : 234391
NUMBER_OF_BYTES : 180012288
_STATISTICS_WRITING_APP : mkvmerge v8.5.1 ('Where you lead I will follow') 32bit
_STATISTICS_WRITING_DATE_UTC : 2016-03-10 17:36:19
_STATISTICS_TAGS : BPS DURATION NUMBER_OF_FRAMES NUMBER_OF_BYTES

Скриншоты
 

Вложения

  • 18,5 KB Просмотры: 0
    Личеров 0
    Сидеров 0
    Файлов 1
    Объем 1,6 GB

Привет!

Мы группа людей которые решили помочь другим в решении их проблем, а так же пользователям с поиском самых свежих и качественных инфопродуктов. За 4 с небольшим месяца мы создали этот форум на который заходят ежедневно тысячи человек и посещаемость постоянно растёт. Мы создали панель лицензирования для защиты PHP скриптов от воровства и SEO панель для мониторинга наших сайтов и выбора верной стратегии их развития. Мы надеемся что то что мы создали пригодится Вам и возможно Вы поможете нам развиваться и совершенствоваться вместе с Вами.

Статистика форума

Темы
410.927
Сообщения
469.366
Пользователи
88.203
Новый пользователь
Irina_flora

Приложения форума для iOS и Android


У ркн там нет власти ;)
Приватные разговоры
Помощь Пользователи
    Вы не присоединились ни к одной комнате.