За последнюю неделю опубликовано 82 новых материалов.
Инструкция новичку Путеводитель по форуму Прокси для Telegram Показать подсказки , это бомба!

Скачать Кто я? (2010) WEB-DLRip от GeneralFilm бесплатно через торрент

  • Поучаствуй (в качестве покупателя) в любых пяти совместных покупках (кроме завершённых и "Моментальных") и получи группу "Новичок" навсегда -> ссылка на раздел
  • Получай до 480 рублей за каждого приглашенного пользователя!
    представляем Вам очередное расширение партнерской программы, подробности описаны тут -> ссылка
  • 90% материалов доступно к скачиванию после простой регистрации!
    Если же ты хочешь скачивать материалы без требования оставлять отзывы то получи группу "Новичок", 10 способов повышения описаны тут -> ссылка
  • К сожалению количество битых ссылок растет и мы уже не можем их оперативно восстанавливать поэтому просим помощи у каждого нашего пользователя.
    С сегодняшнего дня, за каждую восстановленную ссылку мы заплатим Вам.
    Подробнее тут -> ссылка
  • Перенесем твои заслуги с другого ресурса!
    Мы понимаем как сложно прокачивать аккаунты на форумах, вроде раскачал аккаунт, а тут появляется ресурс в 100 раз круче но тоже с системой прокачки и снова качать аккаунт...
    Предлагаем вам перенести Ваши заслуги на другом подобном ресурсе к нам.
    Подробности описаны тут -> ссылка
  • Вы можете получать по 2.5% с каждой покупки и продажи на маркете! Подробности в теме Партнёрская программа
Если Вы не хотите скачивать, Вы всегда можетепосмотретьонлайн, просто нажмите кнопку ниже :

Открыть плеер

Torrent_Bot

Торрент-Бот
Бот форума
4 Окт 2016
104
152
20



Информация о фильме
Оригинальное название: Кто я?
Год выпуска: 2010
Жанр: Драма, детектив
Выпущено: Россия, Wiet Media
Режиссер: Клим Шипенко
В ролях: Александр Яценко, Жанна Фриске, Сергей Газаров, Анатолий Белый, Виктория Толстоганова, Михаил Бабичев, Татьяна Федоровская, Константин Демидов (II), Евгения Ахременко, Илья Оболонков, Сергей Галанин, Андрей Кифияк, Александр Безродный, Игорь Ливенцов, Галина Стрижак, Василий Рукша, Татьяна Шепилова, Дмитрий Феоктистов

О фильме:
Эта история начинается на севастопольском вокзале ранним дождливым утром. На перроне рядом с поездом Москва-Севастополь милиция находит молодого человека без документов, потерявшего память. Он помнит множество фактов: исторические даты, песни своей любимой группы «СерьГа», но не может ни назвать своего имени, ни рассказать, откуда он и кто его семья. Следователь Сергей Шумов и психиатр доктор Трофимов в своей практике впервые сталкиваются с таким случаем. Психиатр определяет состояние молодого человека как диссоциативную амнезию, при которой забываются факты из личной жизни, но сохраняется память на многие внешние события. О молодом человеке могли бы рассказать его вещи, но они еще больше запутывают следователя. Шумову приходится обратиться за помощью к журналистке Оксане. Почти одновременно в одном из севастопольских двориков обнаруживается труп человека. Это преступление оставляет перед следователем не меньше вопросов: при мертвом также нет документов, и сразу установить его личность не удается. Расследование начинается.



Качество: WEB-DLRip
Видео: XviD build 73, 720x304 (2.37:1), 25.000 fps, 1711 Kbps (0.313 bit/pixel)
Аудио: 48.0 kHz, AC3 Dolby Digital, 5/1 (L C R, Side: L R, LFE) ch, 448 kbps
Продолжительность: 01:36:03
Перевод: Не требуется [Русский]
Cубтитры: нет

Скриншоты
MediaInfo
General
Complete name : D:RazdachiKto.Ja.2010.WEBRip.GeneralFilm.avi
Format : AVI
Format/Info : Audio Video Interleave
File size : 1.46 GiB
Duration : 1 h 36 min
Overall bit rate : 2 169 kb/s
Writing application : VirtualDubMod 1.5.10.3 | www.virtualdub-fr.org || (build 2550/release)
Writing library : VirtualDubMod build 2550/release

Video
ID : 0
Format : MPEG-4 Visual
Format profile : Advanced Simple@L5
Format settings : BVOP1 / Custom Matrix
Format settings, BVOP : 1
Format settings, QPel : No
Format settings, GMC : No warppoints
Format settings, Matrix : Custom
Codec ID : XVID
Codec ID/Hint : XviD
Duration : 1 h 36 min
Bit rate : 1 711 kb/s
Width : 720 pixels
Height : 304 pixels
Display aspect ratio : 2.35:1
Frame rate : 25.000 FPS
Color space : YUV
Chroma subsampling : 4:2:0
Bit depth : 8 bits
Scan type : Progressive
Compression mode : Lossy
Bits/(Pixel*Frame) : 0.313
Stream size : 1.15 GiB (79%)
Writing library : XviD 73

Audio
ID : 1
Format : AC-3
Format/Info : Audio Coding 3
Commercial name : Dolby Digital
Codec ID : 2000
Duration : 1 h 36 min
Bit rate mode : Constant
Bit rate : 448 kb/s
Channel(s) : 6 channels
Channel layout : L R C LFE Ls Rs
Sampling rate : 48.0 kHz
Frame rate : 31.250 FPS (1536 SPF)
Bit depth : 16 bits
Compression mode : Lossy
Stream size : 308 MiB (21%)
Alignment : Split accross interleaves
Interleave, duration : 40 ms (1.00 video frame)
Interleave, preload duratio : 500 ms
Service kind : Complete Main
Релиз от:
 

Вложения

  • 15,5 KB Просмотры: 0
    Личеров 0
    Сидеров 0
    Файлов 1
    Объем 1,5 GB

Привет!

Мы группа людей которые решили помочь другим в решении их проблем, а так же пользователям с поиском самых свежих и качественных инфопродуктов. За 4 с небольшим месяца мы создали этот форум на который заходят ежедневно тысячи человек и посещаемость постоянно растёт. Мы создали панель лицензирования для защиты PHP скриптов от воровства и SEO панель для мониторинга наших сайтов и выбора верной стратегии их развития. Мы надеемся что то что мы создали пригодится Вам и возможно Вы поможете нам развиваться и совершенствоваться вместе с Вами.

Статистика форума

Темы
404.526
Сообщения
461.392
Пользователи
80.024
Новый пользователь
nagual26

Приложения форума для iOS и Android


У ркн там нет власти ;)
Приватные разговоры
Помощь Пользователи
    Вы не присоединились ни к одной комнате.