За последнюю неделю опубликовано 26 новых материалов.
Инструкция новичку Путеводитель по форуму Прокси для Telegram Показать подсказки , это бомба!

Скачать Ксанаду / Xanadu (1980) BDRip 1080p | P бесплатно через торрент

  • Поучаствуй (в качестве покупателя) в любых пяти совместных покупках (кроме завершённых и "Моментальных") и получи группу "Новичок" навсегда -> ссылка на раздел
  • Получай до 480 рублей за каждого приглашенного пользователя!
    представляем Вам очередное расширение партнерской программы, подробности описаны тут -> ссылка
  • 90% материалов доступно к скачиванию после простой регистрации!
    Если же ты хочешь скачивать материалы без требования оставлять отзывы то получи группу "Новичок", 10 способов повышения описаны тут -> ссылка
  • К сожалению количество битых ссылок растет и мы уже не можем их оперативно восстанавливать поэтому просим помощи у каждого нашего пользователя.
    С сегодняшнего дня, за каждую восстановленную ссылку мы заплатим Вам.
    Подробнее тут -> ссылка
  • Перенесем твои заслуги с другого ресурса!
    Мы понимаем как сложно прокачивать аккаунты на форумах, вроде раскачал аккаунт, а тут появляется ресурс в 100 раз круче но тоже с системой прокачки и снова качать аккаунт...
    Предлагаем вам перенести Ваши заслуги на другом подобном ресурсе к нам.
    Подробности описаны тут -> ссылка
  • Вы можете получать по 2.5% с каждой покупки и продажи на маркете! Подробности в теме Партнёрская программа
Если Вы не хотите скачивать, Вы всегда можетепосмотретьонлайн, просто нажмите кнопку ниже :

Открыть плеер

Torrent_Bot

Торрент-Бот
Бот форума
4 Окт 2016
122
116
20


Информация о фильме
Название: Ксанаду
Оригинальное название: Xanadu
Год выпуска: 1980
Страна: США
Жанр: Мюзикл, фэнтези, мелодрама
Продолжительность: 01:35:58

Перевод: Профессиональный (многоголосый закадровый)
Субтитры: Русские, английские

Режиссер: Роберт Гринуолд

В ролях: Оливия Ньютон-Джон, Джин Келли, Майкл Бек, Джеймс Слойан, Димитра Арлисс, Кэти Хэнли, Фред МакКэррен, Рен Вудс, Сэндал Бергман, Линн Лэтэм...

Описание: Этот фильм — взгляд в будущее и нежные воспоминания о событиях и жизни в эпоху расцвета Голливуда. Здесь сороковые встречаются с восьмидесятыми
на фоне весьма необычной любовной истории и щедро насыщенного мелодиями старомодного мюзикла, в котором звучит вполне современная музыка.

Заглавный трек, исполненный Оливией вместе с Electric Light Orchestra получил Grammy за лучшую песню года.
Список песен::
Olivia Newton-John:
01. "Magic" - Olivia Newton-John
02. "Suddenly" - Newton-John with Cliff Richard
03. "Dancin'" - Newton-John with the Tubes
04. "Suspended in Time" - Olivia Newton-John
05. "Whenever You're Away From Me" - Newton-John with Gene Kelly

Electric Light Orchestra:
06. "I'm Alive" - Jeff Lynne
07. "The Fall" - Jeff Lynne
08. "Don't Walk Away" - Jeff Lynne
09. "All Over the World" - Jeff Lynne
10. "Xanadu" - Newton-John with Lynne



Файл
Кодек: x264
Качество: BDRip 1080p
Видео: MPEG4 Video (H264), 1920x1040, 23.976fps, 12.9 Mbps
Аудио: Русский, Dolby AC3, 48000 Hz, 2ch, 192 kbps - Многоголосый
Аудио: Английский, Dolby AC3, 48000 Hz, 6ch, 384 kbps
Формат субтитров: Softsub (SRT)

MediaInfo:
General
Unique ID : 237287426447683107536365005850145022380 (0xB283E56066BE0339A902CEE7B01561AC)
Complete name : D:Torrent21980.Xanadu.likko.mkv
Format : Matroska
Format version : Version 4
File size : 9.03 GiB
Duration : 1 h 35 min
Overall bit rate : 13.5 Mb/s
Movie name : 1980 Ксанаду/likko
Encoded date : UTC 2019-12-20 19:24:35
Writing application : mkvmerge v8.3.0 ('Over the Horizon') 64bit
Writing library : libebml v1.3.1 + libmatroska v1.4.2

Video
ID : 1
Format : AVC
Format/Info : Advanced Video Codec
Format profile : High@L4.1
Format settings : CABAC / 4 Ref Frames
Format settings, CABAC : Yes
Format settings, Reference : 4 frames
Codec ID : V_MPEG4/ISO/AVC
Duration : 1 h 35 min
Bit rate : 12.9 Mb/s
Width : 1 920 pixels
Height : 1 040 pixels
Display aspect ratio : 1.85:1
Frame rate mode : Constant
Frame rate : 23.976 (24000/1001) FPS
Color space : YUV
Chroma subsampling : 4:2:0
Bit depth : 8 bits
Scan type : Progressive
Bits/(Pixel*Frame) : 0.269
Stream size : 8.64 GiB (96%)
Title : 1980 Ксанаду
Writing library : x264 core 148 r2638 7599210
Encoding settings : cabac=1 / ref=4 / deblock=1:-1:-1 / analyse=0x3:0x133 / me=umh / subme=11 / psy=1 / psy_rd=1.00:0.15 / mixed_ref=1 / me_range=48 / chroma_me=1 / trellis=2 / 8x8dct=1 / cqm=0 / deadzone=21,11 / fast_pskip=0 / chroma_qp_offset=-3 / threads=18 / lookahead_threads=4 / sliced_threads=0 / nr=0 / decimate=1 / interlaced=0 / bluray_compat=0 / constrained_intra=0 / bframes=10 / b_pyramid=2 / b_adapt=2 / b_bias=0 / direct=3 / weightb=1 / open_gop=0 / weightp=2 / keyint=250 / keyint_min=23 / scenecut=40 / intra_refresh=0 / rc=2pass / mbtree=0 / bitrate=12900 / ratetol=1.0 / qcomp=0.60 / qpmin=0 / qpmax=69 / qpstep=4 / cplxblur=20.0 / qblur=0.5 / ip_ratio=1.40 / pb_ratio=1.30 / aq=2:1.00
Language : English
Default : Yes
Forced : No

Audio #1
ID : 2
Format : AC-3
Format/Info : Audio Coding 3
Commercial name : Dolby Digital
Codec ID : A_AC3
Duration : 1 h 35 min
Bit rate mode : Constant
Bit rate : 192 kb/s
Channel(s) : 2 channels
Channel layout : L R
Sampling rate : 48.0 kHz
Frame rate : 31.250 FPS (1536 SPF)
Compression mode : Lossy
Stream size : 132 MiB (1%)
Title : Многоголосый
Language : Russian
Service kind : Complete Main
Default : Yes
Forced : No

Audio #2
ID : 3
Format : AC-3
Format/Info : Audio Coding 3
Commercial name : Dolby Digital
Codec ID : A_AC3
Duration : 1 h 35 min
Bit rate mode : Constant
Bit rate : 384 kb/s
Channel(s) : 6 channels
Channel layout : L R C LFE Ls Rs
Sampling rate : 48.0 kHz
Frame rate : 31.250 FPS (1536 SPF)
Compression mode : Lossy
Stream size : 264 MiB (3%)
Language : English
Service kind : Complete Main
Default : No
Forced : No

Text #1
ID : 4
Format : UTF-8
Codec ID : S_TEXT/UTF8
Codec ID/Info : UTF-8 Plain Text
Duration : 1 h 34 min
Bit rate : 99 b/s
Count of elements : 1220
Stream size : 69.1 KiB (0%)
Language : Russian
Default : No
Forced : No

Text #2
ID : 5
Format : UTF-8
Codec ID : S_TEXT/UTF8
Codec ID/Info : UTF-8 Plain Text
Duration : 1 h 34 min
Bit rate : 66 b/s
Count of elements : 1390
Stream size : 45.7 KiB (0%)
Language : English
Default : No
Forced : No

Menu
00:00:00.000 : en:Chapter 01
00:03:48.186 : en:Chapter 02
00:07:57.268 : en:Chapter 03
00:12:13.691 : en:Chapter 04
00:17:17.077 : en:Chapter 05
00:23:46.133 : en:Chapter 06
00:28:33.002 : en:Chapter 07
00:36:10.418 : en:Chapter 08
00:40:42.523 : en:Chapter 09
00:43:19.388 : en:Chapter 10
00:50:08.588 : en:Chapter 11
00:55:29.200 : en:Chapter 12
00:59:29.774 : en:Chapter 13
01:05:00.521 : en:Chapter 14
01:11:09.556 : en:Chapter 15
01:17:21.303 : en:Chapter 16
01:21:26.256 : en:Chapter 17
01:33:15.881 : en:Chapter 18
Скриншоты:

 

Вложения

  • 46 KB Просмотры: 0
    Личеров 0
    Сидеров 0
    Файлов 1
    Объем 9 GB

Привет!

Мы группа людей которые решили помочь другим в решении их проблем, а так же пользователям с поиском самых свежих и качественных инфопродуктов. За 4 с небольшим месяца мы создали этот форум на который заходят ежедневно тысячи человек и посещаемость постоянно растёт. Мы создали панель лицензирования для защиты PHP скриптов от воровства и SEO панель для мониторинга наших сайтов и выбора верной стратегии их развития. Мы надеемся что то что мы создали пригодится Вам и возможно Вы поможете нам развиваться и совершенствоваться вместе с Вами.

Статистика форума

Темы
385.054
Сообщения
430.299
Пользователи
62.880
Новый пользователь
YuliaS

Приложения форума для iOS и Android


У ркн там нет власти ;)
Приватные разговоры
Помощь Пользователи
    Вы не присоединились ни к одной комнате.