За последнюю неделю опубликовано 28 новых материалов.
Инструкция новичку Путеводитель по форуму Прокси для Telegram Показать подсказки , это бомба!

Скачать Крупный куш / The Big Take (2018) WEB-DL 1080p от OlLanDGroup | HDRezka Studio бесплатно через торрент

  • Поучаствуй (в качестве покупателя) в любых пяти совместных покупках (кроме завершённых и "Моментальных") и получи группу "Новичок" навсегда -> ссылка на раздел
  • Получай до 480 рублей за каждого приглашенного пользователя!
    представляем Вам очередное расширение партнерской программы, подробности описаны тут -> ссылка
  • 90% материалов доступно к скачиванию после простой регистрации!
    Если же ты хочешь скачивать материалы без требования оставлять отзывы то получи группу "Новичок", 10 способов повышения описаны тут -> ссылка
  • К сожалению количество битых ссылок растет и мы уже не можем их оперативно восстанавливать поэтому просим помощи у каждого нашего пользователя.
    С сегодняшнего дня, за каждую восстановленную ссылку мы заплатим Вам.
    Подробнее тут -> ссылка
  • Перенесем твои заслуги с другого ресурса!
    Мы понимаем как сложно прокачивать аккаунты на форумах, вроде раскачал аккаунт, а тут появляется ресурс в 100 раз круче но тоже с системой прокачки и снова качать аккаунт...
    Предлагаем вам перенести Ваши заслуги на другом подобном ресурсе к нам.
    Подробности описаны тут -> ссылка
  • Вы можете получать по 2.5% с каждой покупки и продажи на маркете! Подробности в теме Партнёрская программа
Если Вы не хотите скачивать, Вы всегда можетепосмотретьонлайн, просто нажмите кнопку ниже :

Открыть плеер

Torrent_Bot

Торрент-Бот
Бот форума
4 Окт 2016
93
155
20

Крупный куш / The Big Take
«It's murder to make a movie»



Год выпуска: 2018
Страна: США
Производство: Federal Pictures, Deerjen Films
Жанр: Триллер

Режиссёр: Джастин Дэйли
В ролях: Джеймс МакКэффри, Эбон Мосс-Бакрак, Зои Белл, Роберт Форстер, Дэн Хедайя, Билл Сейдж, Оксана Лада, Слейт Линдер, Тара Вествуд, Джон Инос III

Перевод: Профессиональный (многоголосый, закадровый) | HDRezka Studio
Субтитры: Английские (полные)
Реклама: Отсутствует

Описание: Знаменитого актера Дугласа Брауна кто-то шантажирует. Он просит разобраться с этим своего агента, который в свою очередь обращается к частному сыщику. Тот выходит на Макса О'Лири, начинающего режиссера, пытающегося снять свой первый фильм. Макс не виноват, но теперь ему придется в одиночку выпутываться из круговорота весьма неприятных событий, где все пытаются сорвать крупный куш.



Качество: WEB-DL 1080p | iTunes Version | The.Big.Take.2018.1080p.WEB-DL.DD5.1.H264-FGT
Продолжительность: 01:18:08

Формат: MKV
Видео кодек: MPEG-4 AVC
Аудио кодек: AC3
Видео: 1916x788 (2.40:1), 23,976 fps, x264 ~4 570 kbps avg, 0.126 bit/pixel
Аудио #1: 48 kHz, AC3 Dolby Digital, 2 (L,R) ch, ~192.00 kbps avg | RUS (HDRezka Studio)
Аудио #2: 48 kHz, AC3 Dolby Digital Plus, 3/2 (L,C,R,l,r) + LFE ch, ~384.00 kbps avg | ENG

Дата премьеры (мир): 7 сентября 2018
Дата премьеры (РФ):


Релиз от:



MediaInfo
Общее
Уникальный идентификатор : 195902538779307993555027578337829950418 (0x936174E139813E9BFFEC055F214593D2)
Полное имя : F:OlLanDGroupThe.Big.Take.2018.WEB-DL(1080p).OlLanDGroup.mkv
Формат : Matroska
Версия формата : Version 4 / Version 2
Размер файла : 2,81 Гбайт
Продолжительность : 1 ч. 18 м.
Общий поток : 5146 Кбит/сек
Название фильма : The.Big.Take.2018 #TorpedoUK#
Дата кодирования : UTC 2018-09-17 15:21:42
Программа кодирования : mkvmerge v25.0.0 ('Prog Noir') 64-bit
Библиотека кодирования : libebml v1.3.6 + libmatroska v1.4.9
Обложка : Yes
Attachments : small_cover.jpg / small_cover_land.jpg / cover.jpg / cover_land.jpg

Видео
Идентификатор : 1
Формат : AVC
Формат/Информация : Advanced Video Codec
Профиль формата : High@L4
Параметр CABAC формата : Да
Параметр ReFrames формата : 5 кадров
Идентификатор кодека : V_MPEG4/ISO/AVC
Продолжительность : 1 ч. 18 м.
Битрейт : 4570 Кбит/сек
Ширина : 1916 пикселей
Высота : 788 пикселей
Соотношение сторон : 2,40:1
Режим частоты кадров : Постоянный
Частота кадров : 23,976 (23976/1000) кадра/сек
Цветовое пространство : YUV
Субдискретизация насыщенности : 4:2:0
Битовая глубина : 8 бит
Тип развёртки : Прогрессивная
Бит/(Пиксели*Кадры) : 0.126
Размер потока : 2,49 Гбайт (89%)
Заголовок : The.Big.Take.2018.1080p.WEB-DL.DD5.1.H264-FGT
Язык : English
Default : Да
Forced : Нет
Цветовой диапазон : Limited
Основные цвета : BT.709
Характеристики трансфера : BT.709
Коэффициенты матрицы : BT.709

Аудио #1
Идентификатор : 2
Формат : AC-3
Формат/Информация : Audio Coding 3
Расширение режима : CM (complete main)
Параметр Endianness формата : Big
Идентификатор кодека : A_AC3
Продолжительность : 1 ч. 18 м.
Вид битрейта : Постоянный
Битрейт : 192 Кбит/сек
Каналы : 2 канала
Расположение каналов : Front: L R
Частота : 48,0 КГц
Частота кадров : 31,250 кадров/сек (1536 spf)
Битовая глубина : 16 бит
Метод сжатия : С потерями
Задержка видео : -42 мс.
Размер потока : 107 Мбайт (4%)
Заголовок : MVO [HDRezka Studio]
Язык : Russian
Default : Да
Forced : Нет

Аудио #2
Идентификатор : 3
Формат : AC-3
Формат/Информация : Audio Coding 3
Расширение режима : CM (complete main)
Параметр Endianness формата : Big
Идентификатор кодека : A_AC3
Продолжительность : 1 ч. 18 м.
Вид битрейта : Постоянный
Битрейт : 384 Кбит/сек
Каналы : 6 каналов
Расположение каналов : Front: L C R, Side: L R, LFE
Частота : 48,0 КГц
Частота кадров : 31,250 кадров/сек (1536 spf)
Битовая глубина : 16 бит
Метод сжатия : С потерями
Задержка видео : -42 мс.
Размер потока : 215 Мбайт (7%)
Заголовок : [Original]
Язык : English
Default : Нет
Forced : Нет

Текст
Идентификатор : 4
Формат : UTF-8
Идентификатор кодека : S_TEXT/UTF8
Идентификатор кодека/Информация : UTF-8 Plain Text
Продолжительность : 1 ч. 15 м.
Битрейт : 57 бит/сек
Count of elements : 969
Размер потока : 31,8 Кбайт (0%)
Заголовок : Full
Язык : English
Default : Нет
Forced : Нет

Меню
00:00:00.000 : en:1
00:03:30.543 : en:2
00:07:54.557 : en:3
00:14:17.314 : en:4
00:19:45.225 : en:5
00:23:41.628 : en:6
00:30:09.807 : en:7
00:35:25.205 : en:8
00:38:24.050 : en:9
00:42:43.642 : en:10
00:47:31.971 : en:11
00:53:29.578 : en:12
00:59:31.189 : en:13
01:02:12.433 : en:14
01:04:32.990 : en:15
01:10:02.194 : en:16
Скриншоты

 

Вложения

  • 15 KB Просмотры: 1
    Личеров 0
    Сидеров 0
    Файлов 1
    Объем 2,8 GB

Привет!

Мы группа людей которые решили помочь другим в решении их проблем, а так же пользователям с поиском самых свежих и качественных инфопродуктов. За 4 с небольшим месяца мы создали этот форум на который заходят ежедневно тысячи человек и посещаемость постоянно растёт. Мы создали панель лицензирования для защиты PHP скриптов от воровства и SEO панель для мониторинга наших сайтов и выбора верной стратегии их развития. Мы надеемся что то что мы создали пригодится Вам и возможно Вы поможете нам развиваться и совершенствоваться вместе с Вами.

Статистика форума

Темы
406.550
Сообщения
464.706
Пользователи
83.405
Новый пользователь
Pumbaardian

Приложения форума для iOS и Android


У ркн там нет власти ;)
Приватные разговоры
Помощь Пользователи
    Вы не присоединились ни к одной комнате.