За последнюю неделю опубликовано 62 новых материалов.
Инструкция новичку Путеводитель по форуму Прокси для Telegram Показать подсказки , это бомба!

Скачать Кровавый спорт / Bloodsport (1988) BDRip 720p от KORSAR | D, P, P2, A | GER Transfer бесплатно через торрент

  • Поучаствуй (в качестве покупателя) в любых пяти совместных покупках (кроме завершённых и "Моментальных") и получи группу "Новичок" навсегда -> ссылка на раздел
  • Получай до 480 рублей за каждого приглашенного пользователя!
    представляем Вам очередное расширение партнерской программы, подробности описаны тут -> ссылка
  • 90% материалов доступно к скачиванию после простой регистрации!
    Если же ты хочешь скачивать материалы без требования оставлять отзывы то получи группу "Новичок", 10 способов повышения описаны тут -> ссылка
  • К сожалению количество битых ссылок растет и мы уже не можем их оперативно восстанавливать поэтому просим помощи у каждого нашего пользователя.
    С сегодняшнего дня, за каждую восстановленную ссылку мы заплатим Вам.
    Подробнее тут -> ссылка
  • Перенесем твои заслуги с другого ресурса!
    Мы понимаем как сложно прокачивать аккаунты на форумах, вроде раскачал аккаунт, а тут появляется ресурс в 100 раз круче но тоже с системой прокачки и снова качать аккаунт...
    Предлагаем вам перенести Ваши заслуги на другом подобном ресурсе к нам.
    Подробности описаны тут -> ссылка
  • Вы можете получать по 2.5% с каждой покупки и продажи на маркете! Подробности в теме Партнёрская программа
Если Вы не хотите скачивать, Вы всегда можетепосмотретьонлайн, просто нажмите кнопку ниже :

Открыть плеер

Torrent_Bot

Торрент-Бот
Бот форума
4 Окт 2016
92
160
20

Кровавый спорт
Bloodsport
«Based on the real story of the Great White Dragon»


Страна: США
Жанр: драма, спорт, биография, боевик
Год выпуска: 1988
Продолжительность: 01:32:19
Перевод: Профессиональный (полное дублирование), Профессиональный (многоголосый, закадровый), Профессиональный (двухголосый, закадровый), Авторский
Субтитры: русские, английские.


Режиссер: Ньют Арнольд / Newt Arnold


В ролях: Жан-Клод Ван Дамм(Frank Dux), Боло Йен(Chong Li), Форест Уитакер(Rawlins), Дональд Гибб(Ray Jackson), Леа Эйрс(Janice Kent), Норман Бёртон(Helmer), Рой Чяо(Senzo Tanaka), Филип Чань(Captain Chen), Пьер Рафини(Young Frank), Кен Сиу(Victor Lin), Кимо Лаи Квок Ки(Hiro), Бернард Мариано(Sadiq Hossein)


Описание: В Гонконге должны состояться подпольные соревнования по восточным единоборствам, к которым готовится и один из американских военнослужащих. В свое время, будучи ребенком, он стал приемным сыном японца - учителя каратэ, достиг совершенства путем упорных тренировок и в знак успеха получил священный японский меч.








Качество: BDRip 720p
Контейнер: MKV

Видео: AVC, 1272x692 (1.85:1), 7500 kbps, 23,976 fps, 0,355 bpp
Аудио №01: русский / AC3 / 2.0 / 48 kHz / 192 kbps / Дубляж ( Sony Turbo )
Аудио №02: русский / AC3 / 2.0 / 48 kHz / 192 kbps / MVO ( FDV )
Аудио №03: русский / AC3 / 2.0 / 48 kHz / 192 kbps / MVO ( СТС/"Перец" )
Аудио №04: русский / AC3 / 2.0 / 48 kHz / 192 kbps / MVO ( Paramount Channel )
Аудио №05: русский / AC3 / 2.0 / 48 kHz / 192 kbps / DVO ( DDV/Video Biz )
Аудио №06: русский / AC3 / 2.0 / 48 kHz / 192 kbps / DVO ( НТВ )
Аудио №07: русский / AC3 / 2.0 / 48 kHz / 192 kbps / AVO ( Гаврилов )
Аудио №08: русский / AC3 / 2.0 / 48 kHz / 192 kbps / AVO ( Сербин )
Аудио №09: русский / AC3 / 2.0 / 48 kHz / 192 kbps / AVO ( Живов )
Аудио №10: русский / AC3 / 2.0 / 48 kHz / 192 kbps / AVO ( Володарский (ранний) )
Аудио №11: русский / AC3 / 2.0 / 48 kHz / 192 kbps / AVO ( Володарский (поздний) )
Аудио №12: русский / AC3 / 2.0 / 48 kHz / 192 kbps / AVO ( Дохалов )
Аудио №13: русский / AC3 / 2.0 / 48 kHz / 192 kbps / AVO ( Яроцкий )
Аудио №14: русский / AC3 / 2.0 / 48 kHz / 192 kbps / AVO ( Горчаков )
Аудио №15: русский / AC3 / 2.0 / 48 kHz / 192 kbps / AVO ( Никитин )
Аудио №16: русский / AC3 / 2.0 / 48 kHz / 192 kbps / AVO ( Зереницын-Белов )
Аудио №17: русский / AC3 / 2.0 / 48 kHz / 192 kbps / AVO ( Витя-Говорун )
Аудио №18: русский / AC3 / 2.0 / 48 kHz / 192 kbps / AVO ( студия "Святослав" )
Аудио №19: русский / AC3 / 2.0 / 48 kHz / 192 kbps / AVO ( Дама )
Аудио №20: английский / AC3 / 2.0 / 48 kHz / 192 kbps
Субтитры: Русские, английские
Навигация по главам: есть


Media Info
************************************************************
x264 [info]: frame I:991 Avg QP:16.93 size:136035
x264 [info]: frame P:29494 Avg QP:18.93 size: 70783
x264 [info]: frame B:102331 Avg QP:20.89 size: 28995
x264 [info]: consecutive B-frames: 1.4% 2.4% 5.7% 36.6% 17.3% 28.9% 3.4% 3.7% 0.4% 0.2% 0.1%
************************************************************
Формат : Matroska
Версия формата : Version 2
Размер файла : 5,70 Гбайт
Продолжительность : 1 ч. 32 м.
Общий поток : 8843 Кбит/сек
Название фильма : = Кровавый спорт / Bloodsport (1988) BDRip 720p - KORSAR =
Дата кодирования : UTC 2019-02-06 10:21:33
Программа кодирования : mkvmerge v5.8.0 ('No Sleep / Pillow') built on Sep 2 2012 15:37:04
Библиотека кодирования : libebml v1.2.3 + libmatroska v1.3.0
Attachment : Yes

Видео
Идентификатор : 1
Формат : AVC
Формат/Информация : Advanced Video Codec
Профиль формата : [email protected]
Параметр CABAC формата : Да
Параметр ReFrames формата : 9 кадров
Идентификатор кодека : V_MPEG4/ISO/AVC
Продолжительность : 1 ч. 32 м.
Битрейт : 7500 Кбит/сек
Ширина : 1272 пикселя
Высота : 692 пикселя
Соотношение сторон : 1,85:1
Режим частоты кадров : Постоянный
Частота кадров : 23,976 кадра/сек
Цветовое пространство : YUV
Субдискретизация насыщенности : 4:2:0
Битовая глубина : 8 бит
Тип развёртки : Прогрессивная
Бит/(Пиксели*Кадры) : 0.355
Размер потока : 4,72 Гбайт (83%)
Заголовок : Кровавый спорт / Bloodsport (1988) BDRip 720p - KORSAR
Библиотека кодирования : x264 core 152 r2851kMod ba24899
Настройки программы : cabac=1 / ref=9 / deblock=1:-2:-2 / analyse=0x3:0x113 / me=esa / subme=11 / psy=1 / fade_compensate=0.00 / psy_rd=1.02:0.06 / mixed_ref=1 / me_range=48 / chroma_me=1 / trellis=2 / 8x8dct=1 / cqm=0 / deadzone=21,11 / fast_pskip=0 / chroma_qp_offset=-3 / threads=12 / lookahead_threads=3 / sliced_threads=0 / nr=0 / decimate=0 / interlaced=0 / bluray_compat=0 / constrained_intra=0 / bframes=10 / b_pyramid=2 / b_adapt=2 / b_bias=0 / direct=3 / weightb=1 / open_gop=0 / weightp=2 / keyint=240 / keyint_min=23 / scenecut=40 / intra_refresh=0 / rc_lookahead=60 / rc=2pass / mbtree=0 / bitrate=7500 / ratetol=1.0 / qcomp=0.70 / qpmin=0 / qpmax=39 / qpstep=4 / cplxblur=20.0 / qblur=0.5 / vbv_maxrate=50000 / vbv_bufsize=62500 / nal_hrd=none / filler=0 / ip_ratio=1.25 / pb_ratio=1.30 / aq=3:0.80
Язык : English
Default : Да
Forced : Нет
Основные цвета : BT.709
Характеристики трансфера : BT.709
Коэффициенты матрицы : BT.709

Аудио #1
Идентификатор : 2
Формат : AC-3
Формат/Информация : Audio Coding 3
Расширение режима : CM (complete main)
Параметр Endianness формата : Big
Идентификатор кодека : A_AC3
Продолжительность : 1 ч. 32 м.
Вид битрейта : Постоянный
Битрейт : 192 Кбит/сек
Каналы : 2 канала
Расположение каналов : Front: L R
Частота : 48,0 КГц
Битовая глубина : 16 бит
Метод сжатия : С потерями
Размер потока : 127 Мбайт (2%)
Заголовок : MVO
Язык : Russian
Default : Да
Forced : Нет

Аудио #2
Идентификатор : 3
Формат : AC-3
Формат/Информация : Audio Coding 3
Расширение режима : CM (complete main)
Параметр Endianness формата : Big
Идентификатор кодека : A_AC3
Продолжительность : 1 ч. 32 м.
Вид битрейта : Постоянный
Битрейт : 192 Кбит/сек
Каналы : 2 канала
Расположение каналов : Front: L R
Частота : 48,0 КГц
Битовая глубина : 16 бит
Метод сжатия : С потерями
Размер потока : 127 Мбайт (2%)
Заголовок : DVO ( HTB )
Язык : Russian
Default : Нет
Forced : Нет

Аудио #3
Идентификатор : 4
Формат : AC-3
Формат/Информация : Audio Coding 3
Расширение режима : CM (complete main)
Параметр Endianness формата : Big
Идентификатор кодека : A_AC3
Продолжительность : 1 ч. 32 м.
Вид битрейта : Постоянный
Битрейт : 192 Кбит/сек
Каналы : 2 канала
Расположение каналов : Front: L R
Частота : 48,0 КГц
Битовая глубина : 16 бит
Метод сжатия : С потерями
Размер потока : 127 Мбайт (2%)
Заголовок : DVO ( R5 )
Язык : Russian
Default : Нет
Forced : Нет

Аудио #4
Идентификатор : 5
Формат : AC-3
Формат/Информация : Audio Coding 3
Расширение режима : CM (complete main)
Параметр Endianness формата : Big
Идентификатор кодека : A_AC3
Продолжительность : 1 ч. 32 м.
Вид битрейта : Постоянный
Битрейт : 192 Кбит/сек
Каналы : 2 канала
Расположение каналов : Front: L R
Частота : 48,0 КГц
Битовая глубина : 16 бит
Метод сжатия : С потерями
Размер потока : 127 Мбайт (2%)
Заголовок : AVO ( Горчаков )
Язык : Russian
Default : Нет
Forced : Нет

Аудио #5
Идентификатор : 6
Формат : AC-3
Формат/Информация : Audio Coding 3
Расширение режима : CM (complete main)
Параметр Endianness формата : Big
Идентификатор кодека : A_AC3
Продолжительность : 1 ч. 32 м.
Вид битрейта : Постоянный
Битрейт : 192 Кбит/сек
Каналы : 2 канала
Расположение каналов : Front: L R
Частота : 48,0 КГц
Битовая глубина : 16 бит
Метод сжатия : С потерями
Размер потока : 127 Мбайт (2%)
Заголовок : AVO ( Дохалов )
Язык : Russian
Default : Нет
Forced : Нет

Аудио #6
Идентификатор : 7
Формат : AC-3
Формат/Информация : Audio Coding 3
Расширение режима : CM (complete main)
Параметр Endianness формата : Big
Идентификатор кодека : A_AC3
Продолжительность : 1 ч. 32 м.
Вид битрейта : Постоянный
Битрейт : 192 Кбит/сек
Каналы : 2 канала
Расположение каналов : Front: L R
Частота : 48,0 КГц
Битовая глубина : 16 бит
Метод сжатия : С потерями
Размер потока : 127 Мбайт (2%)
Заголовок : AVO ( Володарский )
Язык : Russian
Default : Нет
Forced : Нет

Аудио #7
Идентификатор : 8
Формат : AC-3
Формат/Информация : Audio Coding 3
Расширение режима : CM (complete main)
Параметр Endianness формата : Big
Идентификатор кодека : A_AC3
Продолжительность : 1 ч. 32 м.
Вид битрейта : Постоянный
Битрейт : 192 Кбит/сек
Каналы : 2 канала
Расположение каналов : Front: L R
Частота : 48,0 КГц
Битовая глубина : 16 бит
Метод сжатия : С потерями
Размер потока : 127 Мбайт (2%)
Язык : English
Default : Нет
Forced : Нет

Текст #1
Идентификатор : 9
Формат : UTF-8
Идентификатор кодека : S_TEXT/UTF8
Идентификатор кодека/Информация : UTF-8 Plain Text
Язык : Russian
Default : Нет
Forced : Нет

Текст #2
Идентификатор : 10
Формат : UTF-8
Идентификатор кодека : S_TEXT/UTF8
Идентификатор кодека/Информация : UTF-8 Plain Text
Язык : English
Default : Нет
Forced : Нет

Меню
00:00:00.000 : en:00:00:00.000
00:03:06.144 : en:00:03:06.144
00:08:43.690 : en:00:08:43.690
00:17:44.605 : en:00:17:44.605
00:28:09.938 : en:00:28:09.938
00:33:50.612 : en:00:33:50.612
00:44:21.784 : en:00:44:21.784
00:51:08.565 : en:00:51:08.565
01:02:48.098 : en:01:02:48.098
01:07:29.921 : en:01:07:29.921
01:15:23.144 : en:01:15:23.144
01:26:00.572 : en:01:26:00.572


Скриншоты


За звуковые дорожки - огромное спасибо ребятам с TeamHD
 

Вложения

  • 37,5 KB Просмотры: 0
    Личеров 0
    Сидеров 0
    Файлов 1
    Объем 7,3 GB

Привет!

Мы группа людей которые решили помочь другим в решении их проблем, а так же пользователям с поиском самых свежих и качественных инфопродуктов. За 4 с небольшим месяца мы создали этот форум на который заходят ежедневно тысячи человек и посещаемость постоянно растёт. Мы создали панель лицензирования для защиты PHP скриптов от воровства и SEO панель для мониторинга наших сайтов и выбора верной стратегии их развития. Мы надеемся что то что мы создали пригодится Вам и возможно Вы поможете нам развиваться и совершенствоваться вместе с Вами.

Статистика форума

Темы
406.656
Сообщения
465.104
Пользователи
84.661
Новый пользователь
tomik

Приложения форума для iOS и Android


У ркн там нет власти ;)
Приватные разговоры
Помощь Пользователи
    Вы не присоединились ни к одной комнате.