За последнюю неделю опубликовано 28 новых материалов.
Инструкция новичку Путеводитель по форуму Прокси для Telegram Показать подсказки , это бомба!

Скачать Кровавый четверг / Thursday (1998) BDRip-AVC от HQ-ViDEO бесплатно через торрент

  • Поучаствуй (в качестве покупателя) в любых пяти совместных покупках (кроме завершённых и "Моментальных") и получи группу "Новичок" навсегда -> ссылка на раздел
  • Получай до 480 рублей за каждого приглашенного пользователя!
    представляем Вам очередное расширение партнерской программы, подробности описаны тут -> ссылка
  • 90% материалов доступно к скачиванию после простой регистрации!
    Если же ты хочешь скачивать материалы без требования оставлять отзывы то получи группу "Новичок", 10 способов повышения описаны тут -> ссылка
  • К сожалению количество битых ссылок растет и мы уже не можем их оперативно восстанавливать поэтому просим помощи у каждого нашего пользователя.
    С сегодняшнего дня, за каждую восстановленную ссылку мы заплатим Вам.
    Подробнее тут -> ссылка
  • Перенесем твои заслуги с другого ресурса!
    Мы понимаем как сложно прокачивать аккаунты на форумах, вроде раскачал аккаунт, а тут появляется ресурс в 100 раз круче но тоже с системой прокачки и снова качать аккаунт...
    Предлагаем вам перенести Ваши заслуги на другом подобном ресурсе к нам.
    Подробности описаны тут -> ссылка
  • Вы можете получать по 2.5% с каждой покупки и продажи на маркете! Подробности в теме Партнёрская программа
Если Вы не хотите скачивать, Вы всегда можетепосмотретьонлайн, просто нажмите кнопку ниже :

Открыть плеер

Torrent_Bot

Торрент-Бот
Бот форума
4 Окт 2016
93
160
20
Кровавый четверг / Thursday (1998) BDRip-AVC
Релиз отHQ-ViDEO


Жанр: Боевик, Триллер, Драма, Криминал
Год выхода: 1998

Режиссер: Скип Вудс /Skip Woods/

В ролях: Пола Маршалл /Paula Marshall/, Люк Хари /Luck Hari/, Томас Джейн /Thomas Jane/, Бари К. Уиллерфорд /Bari K. Willerford/, Майкл Джитер /Michael Jeter/, Паулина Поризкова /Paulina Porizkova/, Джеймс ЛеГрос /James LeGros/, Гленн Пламмер /Glenn Plummer/, Аарон Экхарт /Aaron Eckhart/, Микки Рурк /Mickey Rourke/


Описание: Бывший торговец наркотиками, прошедший через все круги ада, решает выйти на пенсию и забыть о своём тёмном прошлом. Переехав из Лос-Анджелеса в Хьюстон, он резко меняет свой имидж и в глазах окружающих становится обыкновенным гражданином, которого трудно заподозрить в чём-либо криминальном. Однако судьба готовит очередной, самый неожиданный сюрприз бывшему наркодилеру. В город приезжает его подельник с грузом героина. Компаньон и не думал забывать о своём партнёре всё то время, пока тот строил свою новую жизнь. Он предлагает ему последнюю сделку. За всё однажды приходится платить, и бывший наркоделец оказывается на волосок от смерти.



Релиз:

Автор рипа:AngelOfTrue

Продолжительность: 01:27:47

Перевод: Русский многоголосый перевод (R5) + Оригинальная дорожка

Субтитры: Русские (полные), Английские (полные).

Информация о файле:
Качество: BDRip-AVC (Исходник: Thursday 1998 1080p Director's Cut GER Blu-ray AVC DTS-HD MA 5.1-CineArk)
Формат: MKV
Видео: MPEG-4 AVC, x264, 1098 x 596; 23.976 fps; 2650 kbps; 0.169 bit/pixel
Аудио #1: 48 kHz, AC3 Dolby Digital, 3/2 (L,C,R,l,r) + LFE ch, ~448.00 kbps avg
Аудио #2: 48 kHz, AC3 Dolby Digital, 3/2 (L,C,R,l,r) + LFE ch, ~448.00 kbps avg

Log
avs [info]: 1098x596p 1:1 @ 2997/125 fps (cfr)
x264 [warning]: --psnr used with psy on: results will be invalid!
x264 [warning]: --tune psnr should be used if attempting to benchmark psnr!
x264 [info]: using SAR=1/1
x264 [info]: using cpu capabilities: MMX2 SSE2Fast SSSE3 SSE4.2 AVX AVX2 FMA3 LZCNT BMI1 BMI2
x264 [info]: profile High, level 4.0

x264 [info]: frame I:1004 Avg QP:19.22 size: 71507 PSNR Mean Y:44.87 U:51.05 V:52.00 Avg:46.02 Global:45.31
x264 [info]: frame P:22738 Avg QP:21.93 size: 25432 PSNR Mean Y:43.09 U:50.58 V:51.56 Avg:44.37 Global:43.79
x264 [info]: frame B:102562 Avg QP:23.09 size: 10663 PSNR Mean Y:42.03 U:50.33 V:51.52 Avg:43.38 Global:42.73
x264 [info]: consecutive B-frames: 1.4% 1.0% 4.2% 8.3% 12.8% 49.2% 8.1% 3.3% 3.2% 2.5% 2.2% 2.7% 1.0%
x264 [info]: mb I I16..4: 3.5% 86.7% 9.8%
x264 [info]: mb P I16..4: 0.7% 8.2% 1.1% P16..4: 34.8% 39.8% 11.5% 0.9% 0.0% skip: 3.1%
x264 [info]: mb B I16..4: 0.0% 0.8% 0.1% B16..8: 43.6% 19.5% 2.6% direct: 5.3% skip:28.2% L0:46.6% L1:47.5% BI: 5.9%
x264 [info]: 8x8 transform intra:83.5% inter:62.5%
x264 [info]: direct mvs spatial:99.8% temporal:0.2%
x264 [info]: coded y,uvDC,uvAC intra: 90.0% 66.1% 26.8% inter: 29.8% 16.3% 1.4%
x264 [info]: i16 v,h,dc,p: 32% 14% 8% 46%
x264 [info]: i8 v,h,dc,ddl,ddr,vr,hd,vl,hu: 11% 5% 4% 11% 16% 15% 14% 12% 11%
x264 [info]: i4 v,h,dc,ddl,ddr,vr,hd,vl,hu: 30% 5% 5% 7% 12% 13% 11% 9% 8%
x264 [info]: i8c dc,h,v,p: 33% 28% 20% 20%
x264 [info]: Weighted P-Frames: Y:10.1% UV:1.5%
x264 [info]: ref P L0: 44.2% 7.6% 18.0% 8.2% 6.2% 4.7% 3.9% 2.3% 1.9% 1.6% 1.2% 0.2% 0.0%
x264 [info]: ref B L0: 62.4% 14.9% 8.2% 4.5% 3.3% 2.6% 2.1% 1.2% 0.6% 0.2%
x264 [info]: ref B L1: 89.6% 10.4%
x264 [info]: SSIM Mean Y:0.9585112 (13.821db)
x264 [info]: PSNR Mean Y:42.243 U:50.384 V:51.528 Avg:43.583 Global:42.921 kb/s:2647.99

MediaInfo
Format : Matroska
Format version : Version 4 / Version 2
File size : 2.17 GiB
Duration : 1h 27mn
Overall bit rate : 3 546 Kbps
Encoded date : UTC 2014-01-02 05:11:03
Writing application : mkvmerge v6.1.0 ('Old Devil') built on Mar 4 2013 09:10:42
Writing library : libebml v1.3.0 + libmatroska v1.4.0

Video
ID : 1
Format : AVC
Format/Info : Advanced Video Codec
Format profile : [email protected]
Format settings, CABAC : Yes
Format settings, ReFrames : 11 frames
Codec ID : V_MPEG4/ISO/AVC
Duration : 1h 27mn
Bit rate : 2 650 Kbps
Width : 1 098 pixels
Height : 596 pixels
Display aspect ratio : 16:9
Frame rate : 23.976 fps
Color space : YUV
Chroma subsampling : 4:2:0
Bit depth : 8 bits
Scan type : Progressive
Bits/(Pixel*Frame) : 0.169
Stream size : 1.58 GiB (73%)
Title : Krovavyi.Chetverg.1998.DUAL.BDRip.XviD.AC3.-HQ-ViDEO
Writing library : x264 core 130 r2273 b3065e6
Encoding settings : cabac=1 / ref=11 / deblock=1:-3:-2 / analyse=0x3:0x133 / me=umh / subme=11 / psy=1 / psy_rd=1.05:0.00 / mixed_ref=1 / me_range=32 / chroma_me=1 / trellis=2 / 8x8dct=1 / cqm=0 / deadzone=21,11 / fast_pskip=0 / chroma_qp_offset=-2 / threads=6 / lookahead_threads=1 / sliced_threads=0 / nr=0 / decimate=0 / interlaced=0 / bluray_compat=0 / constrained_intra=0 / bframes=12 / b_pyramid=2 / b_adapt=2 / b_bias=0 / direct=3 / weightb=1 / open_gop=0 / weightp=2 / keyint=240 / keyint_min=23 / scenecut=40 / intra_refresh=0 / rc_lookahead=60 / rc=2pass / mbtree=0 / bitrate=2650 / ratetol=1.0 / qcomp=0.65 / qpmin=0 / qpmax=69 / qpstep=4 / cplxblur=20.0 / qblur=0.5 / vbv_maxrate=20000 / vbv_bufsize=25000 / nal_hrd=none / ip_ratio=1.35 / pb_ratio=1.25 / aq=2:1.00
Language : Russian
Default : Yes
Forced : No
Color primaries : BT.709-5, BT.1361, IEC 61966-2-4, SMPTE RP177
Transfer characteristics : BT.709-5, BT.1361

Audio #1
ID : 2
Format : AC-3
Format/Info : Audio Coding 3
Mode extension : CM (complete main)
Codec ID : A_AC3
Duration : 1h 27mn
Bit rate mode : Constant
Bit rate : 448 Kbps
Channel(s) : 6 channels
Channel positions : Front: L C R, Side: L R, LFE
Sampling rate : 48.0 KHz
Bit depth : 16 bits
Compression mode : Lossy
Stream size : 281 MiB (13%)
Title : MVO (R5)
Language : Russian
Default : Yes
Forced : No

Audio #2
ID : 3
Format : AC-3
Format/Info : Audio Coding 3
Mode extension : CM (complete main)
Codec ID : A_AC3
Duration : 1h 27mn
Bit rate mode : Constant
Bit rate : 448 Kbps
Channel(s) : 6 channels
Channel positions : Front: L C R, Side: L R, LFE
Sampling rate : 48.0 KHz
Bit depth : 16 bits
Compression mode : Lossy
Stream size : 281 MiB (13%)
Title : Original (English)
Language : English
Default : No
Forced : No

Text #1
ID : 4
Format : UTF-8
Codec ID : S_TEXT/UTF8
Codec ID/Info : UTF-8 Plain Text
Title : Russian (full)
Language : Russian
Default : No
Forced : No

Text #2
ID : 5
Format : UTF-8
Codec ID : S_TEXT/UTF8
Codec ID/Info : UTF-8 Plain Text
Title : English (full)
Language : English
Default : No
Forced : No


Скриншоты для оценки качества:




ПРИЯТНОГО ПРОСМОТРА!
 

Вложения

  • 23,1 KB Просмотры: 1
    Личеров 0
    Сидеров 0
    Файлов 1
    Объем 2,2 GB

Привет!

Мы группа людей которые решили помочь другим в решении их проблем, а так же пользователям с поиском самых свежих и качественных инфопродуктов. За 4 с небольшим месяца мы создали этот форум на который заходят ежедневно тысячи человек и посещаемость постоянно растёт. Мы создали панель лицензирования для защиты PHP скриптов от воровства и SEO панель для мониторинга наших сайтов и выбора верной стратегии их развития. Мы надеемся что то что мы создали пригодится Вам и возможно Вы поможете нам развиваться и совершенствоваться вместе с Вами.

Статистика форума

Темы
406.612
Сообщения
465.069
Пользователи
84.470
Новый пользователь
MaryTalan95

Приложения форума для iOS и Android


У ркн там нет власти ;)
Приватные разговоры
Помощь Пользователи
    Вы не присоединились ни к одной комнате.