За последнюю неделю опубликовано 91 новых материалов.
Инструкция новичку Путеводитель по форуму Прокси для Telegram Показать подсказки , это бомба!

Скачать Кровавый алмаз / Blood Diamond (2006) BDRip-HEVC 1080p | D, P2, A бесплатно через торрент

  • Поучаствуй (в качестве покупателя) в любых пяти совместных покупках (кроме завершённых и "Моментальных") и получи группу "Новичок" навсегда -> ссылка на раздел
  • Получай до 480 рублей за каждого приглашенного пользователя!
    представляем Вам очередное расширение партнерской программы, подробности описаны тут -> ссылка
  • 90% материалов доступно к скачиванию после простой регистрации!
    Если же ты хочешь скачивать материалы без требования оставлять отзывы то получи группу "Новичок", 10 способов повышения описаны тут -> ссылка
  • К сожалению количество битых ссылок растет и мы уже не можем их оперативно восстанавливать поэтому просим помощи у каждого нашего пользователя.
    С сегодняшнего дня, за каждую восстановленную ссылку мы заплатим Вам.
    Подробнее тут -> ссылка
  • Перенесем твои заслуги с другого ресурса!
    Мы понимаем как сложно прокачивать аккаунты на форумах, вроде раскачал аккаунт, а тут появляется ресурс в 100 раз круче но тоже с системой прокачки и снова качать аккаунт...
    Предлагаем вам перенести Ваши заслуги на другом подобном ресурсе к нам.
    Подробности описаны тут -> ссылка
  • Вы можете получать по 2.5% с каждой покупки и продажи на маркете! Подробности в теме Партнёрская программа
Если Вы не хотите скачивать, Вы всегда можетепосмотретьонлайн, просто нажмите кнопку ниже :

Открыть плеер

Torrent_Bot

Торрент-Бот
Бот форума
4 Окт 2016
102
152
20



Название: Кровавый алмаз
Оригинальное название: Blood Diamond
Год выхода: 2006
Жанр: триллер, драма, приключения
Режиссер: Эдвард Цвик
В ролях: Леонардо ДиКаприо, Джимон Хонсу, Дженнифер Коннелли, Арнольд Вослу, Майкл Шин, Карузо Кеперс, Дэвид Хэрвуд, Бейзил Уоллес, Джими Мистри, Энтони Коулмэн

О фильме: 1999, Сьерра-Леоне. Гражданская война. Кровь и хаос. В этой безрадостной атмосфере орудует ловкий контрабандист, специальность которого — бриллианты. Ему нет особенного дела, что эти камешки используются для дальнейшего нагнетания межнациональной розни. Но однажды контрабандист встречает местного рыбака, у которого пропал сын — его, говорят, забрали в «детскую армию», используемую на фронтах гражданской войны. И два разных человека образуют противоестественную коалицию…



Страна: США, Германия
Студия: Warner Bros., Virtual Studios, Spring Creek Productions, Bedford Falls Productions, Initial Entertainment Group, Lonely Film Productions GmbH & Co
Продолжительность: 02:23:21
Перевод: дублированный, профессиональный двухголосый, авторский одноголосый

Качество: BDRip-HEVC 1080p
Кодек: HEVC (x265)
Видео: 1920x798 (2.40:1), 9865 Кбит/сек, HEVC (Main10@L.4.1@High) 10 бит
Звук:
Аудио1: AC3, 6 ch, 640 Kbps - русский Дублированный (Blu-ray CEE)
Аудио2: AC3, 6 ch, 640 Kbps - русский Двухголосый (Пётр Гланц, Инна Королёва)
Аудио3: AC3, 6 ch, 640 Kbps - русский Авторский (Андрей Гаврилов)
Аудио4: AC3, 6 ch, 640 Kbps - русский Авторский (Михаил Яроцкий)
Аудио5: AC3, 6 ch, 640 Kbps - русский Авторский (Сергей Рябов)
Аудио6: AC3, 6 ch, 640 Kbps - русский Авторский (Вадим Архипов)
Аудио7: AC3, 6 ch, 384 Kbps - украинский Дублированный (R5)
Аудио8: AC3, 6 ch, 640 Kbps - english Original

Субтитры: Русские полные (SRT), English full (SRT)
Навигация по главам: Есть

Лог (x265 info)
x265 [info]: frame I: 878, Avg QP:18.39 kb/s: 22029.73
x265 [info]: frame P: 40981, Avg QP:19.99 kb/s: 15661.79
x265 [info]: frame B: 164374, Avg QP:21.63 kb/s: 8353.87
x265 [info]: Weighted P-Frames: Y:4.5% UV:3.8%
x265 [info]: Weighted B-Frames: Y:5.9% UV:4.6%
x265 [info]: consecutive B-frames: 3.8% 6.3% 9.7% 24.1% 17.1% 27.7% 3.4% 4.8% 0.8% 0.6% 0.4% 0.8% 0.1% 0.2% 0.1% 0.2% 0.2%
x265 [info]: encoded 206233 frames in 190390.75s (1.08 fps), 9864.27 kb/s, Avg QP:21.29
Mediainfo
Формат : Matroska
Версия формата : Version 4
Размер файла : 14,8 Гбайт
Продолжительность : 2 ч. 23 м.
Общий поток : 14,7 Мбит/сек
Название фильма : Кровавый.алмаз.Blood.Diamond.2006.BDRip-HEVC.1080p
Дата кодирования : UTC 2020-06-09 03:42:39
Программа кодирования : mkvmerge v47.0.0 ('Black Flag') 64-bit
Библиотека кодирования : libebml v1.3.10 + libmatroska v1.5.2
Attachments : korsar.tv.jpg

Видео
Идентификатор : 1
Формат : HEVC
Формат/Информация : High Efficiency Video Coding
Профиль формата : Main 10@L4@Main
Идентификатор кодека : V_MPEGH/ISO/HEVC
Продолжительность : 2 ч. 23 м.
Битрейт : 9 865 Кбит/сек
Ширина : 1 920 пикселей
Высота : 798 пикселей
Соотношение сторон : 2,40:1
Режим частоты кадров : Постоянный
Частота кадров : 23,976 (24000/1001) кадра/сек
Цветовое пространство : YUV
Субдискретизация насыщенности : 4:2:0
Битовая глубина : 10 бит
Бит/(Пиксели*Кадры) : 0.269
Размер потока : 9,88 Гбайт (67%)
Заголовок : Blood Diamond / Rip by OldGamer
Библиотека кодирования : x265 3.3+4-g85d84b2af:[Windows][MSVC 1925][64 bit] 10bit
Настройки программы : cpuid=1111039 / frame-threads=3 / numa-pools=8 / wpp / no-pmode / no-pme / no-psnr / no-ssim / log-level=2 / input-csp=1 / input-res=1920x798 / interlace=0 / total-frames=206233 / level-idc=0 / high-tier=1 / uhd-bd=0 / ref=5 / no-allow-non-conformance / no-repeat-headers / annexb / no-aud / no-hrd / info / hash=0 / no-temporal-layers / open-gop / min-keyint=23 / keyint=240 / gop-lookahead=0 / bframes=16 / b-adapt=2 / b-pyramid / bframe-bias=0 / rc-lookahead=60 / lookahead-slices=0 / scenecut=40 / hist-scenecut=0 / radl=0 / no-splice / no-intra-refresh / ctu=64 / min-cu-size=8 / rect / amp / max-tu-size=32 / tu-inter-depth=4 / tu-intra-depth=4 / limit-tu=1 / rdoq-level=2 / dynamic-rd=0.00 / no-ssim-rd / signhide / no-tskip / nr-intra=0 / nr-inter=0 / no-constrained-intra / no-strong-intra-smoothing / max-merge=5 / limit-refs=3 / no-limit-modes / me=3 / subme=7 / merange=57 / temporal-mvp / no-frame-dup / no-hme / weightp / weightb / no-analyze-src-pics / deblock=-3:-3 / no-sao / no-sao-non-deblock / rd=6 / selective-sao=0 / no-early-skip / rskip / no-fast-intra / no-tskip-fast / no-cu-lossless / b-intra / no-splitrd-skip / rdpenalty=0 / psy-rd=2.00 / psy-rdoq=1.00 / no-rd-refine / no-lossless / cbqpoffs=0 / crqpoffs=0 / rc=crf / crf=18.0 / qcomp=0.60 / qpstep=4 / stats-write=0 / stats-read=0 / ipratio=1.40 / pbratio=1.30 / aq-mode=4 / aq-strength=0.90 / no-cutree / zone-count=1 / zones: / start-frame=194124 / end-frame=206225 / qp=36 / no-strict-cbr / qg-size=32 / no-rc-grain / qpmax=69 / qpmin=0 / no-const-vbv / sar=1 / overscan=0 / videoformat=5 / range=0 / colorprim=2 / transfer=2 / colormatrix=2 / chromaloc=0 / display-window=0 / cll=0,0 / min-luma=0 / max-luma=1023 / log2-max-poc-lsb=8 / vui-timing-info / vui-hrd-info / slices=1 / no-opt-qp-pps / no-opt-ref-list-length-pps / no-multi-pass-opt-rps / scenecut-bias=0.00 / hist-threshold=0.01 / no-opt-cu-delta-qp / no-aq-motion / no-hdr10 / no-hdr10-opt / no-dhdr10-opt / no-idr-recovery-sei / analysis-reuse-level=0 / analysis-save-reuse-level=0 / analysis-load-reuse-level=0 / scale-factor=0 / refine-intra=0 / refine-inter=0 / refine-mv=1 / refine-ctu-distortion=0 / no-limit-sao / ctu-info=0 / no-lowpass-dct / refine-analysis-type=0 / copy-pic=1 / max-ausize-factor=1.0 / no-dynamic-refine / no-single-sei / no-hevc-aq / no-svt / no-field / qp-adaptation-range=1.00 / no-scenecut-aware-qpconformance-window-offsets / right=0 / bottom=0
Язык : English
Default : Да
Forced : Нет

Аудио #1
Идентификатор : 2
Формат : AC-3
Формат/Информация : Audio Coding 3
Коммерческое название : Dolby Digital
Идентификатор кодека : A_AC3
Продолжительность : 2 ч. 23 м.
Вид битрейта : Постоянный
Битрейт : 640 Кбит/сек
Каналы : 6 каналов
Channel layout : L R C LFE Ls Rs
Частота : 48,0 КГц
Частота кадров : 31,250 кадров/сек (1536 SPF)
Метод сжатия : С потерями
Размер потока : 656 Мбайт (4%)
Заголовок : Дублированный (Blu-ray CEE)
Язык : Russian
Service kind : Complete Main
Default : Да
Forced : Нет

Аудио #2
Идентификатор : 3
Формат : AC-3
Формат/Информация : Audio Coding 3
Коммерческое название : Dolby Digital
Идентификатор кодека : A_AC3
Продолжительность : 2 ч. 23 м.
Вид битрейта : Постоянный
Битрейт : 640 Кбит/сек
Каналы : 6 каналов
Channel layout : L R C LFE Ls Rs
Частота : 48,0 КГц
Частота кадров : 31,250 кадров/сек (1536 SPF)
Метод сжатия : С потерями
Размер потока : 656 Мбайт (4%)
Заголовок : Профессиональный двухголосый (Пётр Гланц, Инна Королёва)
Язык : Russian
Service kind : Complete Main
Default : Нет
Forced : Нет

Аудио #3
Идентификатор : 4
Формат : AC-3
Формат/Информация : Audio Coding 3
Коммерческое название : Dolby Digital
Идентификатор кодека : A_AC3
Продолжительность : 2 ч. 23 м.
Вид битрейта : Постоянный
Битрейт : 640 Кбит/сек
Каналы : 6 каналов
Channel layout : L R C LFE Ls Rs
Частота : 48,0 КГц
Частота кадров : 31,250 кадров/сек (1536 SPF)
Метод сжатия : С потерями
Размер потока : 656 Мбайт (4%)
Заголовок : Авторский (Андрей Гаврилов)
Язык : Russian
Service kind : Complete Main
Default : Нет
Forced : Нет

Аудио #4
Идентификатор : 5
Формат : AC-3
Формат/Информация : Audio Coding 3
Коммерческое название : Dolby Digital
Идентификатор кодека : A_AC3
Продолжительность : 2 ч. 23 м.
Вид битрейта : Постоянный
Битрейт : 640 Кбит/сек
Каналы : 6 каналов
Channel layout : L R C LFE Ls Rs
Частота : 48,0 КГц
Частота кадров : 31,250 кадров/сек (1536 SPF)
Метод сжатия : С потерями
Размер потока : 656 Мбайт (4%)
Заголовок : Авторский (Михаил Яроцкий)
Язык : Russian
Service kind : Complete Main
Default : Нет
Forced : Нет

Аудио #5
Идентификатор : 6
Формат : AC-3
Формат/Информация : Audio Coding 3
Коммерческое название : Dolby Digital
Идентификатор кодека : A_AC3
Продолжительность : 2 ч. 23 м.
Вид битрейта : Постоянный
Битрейт : 640 Кбит/сек
Каналы : 6 каналов
Channel layout : L R C LFE Ls Rs
Частота : 48,0 КГц
Частота кадров : 31,250 кадров/сек (1536 SPF)
Метод сжатия : С потерями
Размер потока : 656 Мбайт (4%)
Заголовок : Авторский (Сергей Рябов)
Язык : Russian
Service kind : Complete Main
Default : Нет
Forced : Нет

Аудио #6
Идентификатор : 7
Формат : AC-3
Формат/Информация : Audio Coding 3
Коммерческое название : Dolby Digital
Идентификатор кодека : A_AC3
Продолжительность : 2 ч. 23 м.
Вид битрейта : Постоянный
Битрейт : 640 Кбит/сек
Каналы : 6 каналов
Channel layout : L R C LFE Ls Rs
Частота : 48,0 КГц
Частота кадров : 31,250 кадров/сек (1536 SPF)
Метод сжатия : С потерями
Размер потока : 656 Мбайт (4%)
Заголовок : Авторский ( Вадим Архипов)
Язык : Russian
Service kind : Complete Main
Default : Нет
Forced : Нет

Аудио #7
Идентификатор : 8
Формат : AC-3
Формат/Информация : Audio Coding 3
Коммерческое название : Dolby Digital
Идентификатор кодека : A_AC3
Продолжительность : 2 ч. 23 м.
Вид битрейта : Постоянный
Битрейт : 384 Кбит/сек
Каналы : 6 каналов
Channel layout : L R C LFE Ls Rs
Частота : 48,0 КГц
Частота кадров : 31,250 кадров/сек (1536 SPF)
Метод сжатия : С потерями
Размер потока : 393 Мбайт (3%)
Заголовок : Дублированный (R5)
Язык : Ukrainian
Service kind : Complete Main
Default : Нет
Forced : Нет

Аудио #8
Идентификатор : 9
Формат : AC-3
Формат/Информация : Audio Coding 3
Коммерческое название : Dolby Digital
Идентификатор кодека : A_AC3
Продолжительность : 2 ч. 23 м.
Вид битрейта : Постоянный
Битрейт : 640 Кбит/сек
Каналы : 6 каналов
Channel layout : L R C LFE Ls Rs
Частота : 48,0 КГц
Частота кадров : 31,250 кадров/сек (1536 SPF)
Метод сжатия : С потерями
Размер потока : 656 Мбайт (4%)
Заголовок : English
Язык : English
Service kind : Complete Main
Default : Нет
Forced : Нет

Текст #1
Идентификатор : 10
Формат : UTF-8
Идентификатор кодека : S_TEXT/UTF8
Идентификатор кодека/Информация : UTF-8 Plain Text
Продолжительность : 2 ч. 15 м.
Битрейт : 85 бит/сек
Count of elements : 1466
Размер потока : 84,9 Кбайт (0%)
Заголовок : Русские
Язык : Russian
Default : Нет
Forced : Нет

Текст #2
Идентификатор : 11
Формат : UTF-8
Идентификатор кодека : S_TEXT/UTF8
Идентификатор кодека/Информация : UTF-8 Plain Text
Продолжительность : 2 ч. 12 м.
Битрейт : 52 бит/сек
Count of elements : 1441
Размер потока : 51,1 Кбайт (0%)
Заголовок : Английские
Язык : English
Default : Нет
Forced : Нет

Меню
00:00:00.000 : en:Caught in Revolution's Net
00:06:32.559 : en:Conflict Zone Statistics
00:08:57.537 : en:Danny Negotiates
00:14:38.211 : en:Give It to Me
00:18:05.251 : en:Hidden Stones
00:21:56.482 : en:Meeting Maddy
00:27:35.988 : en:Soldiers and Captives
00:30:43.175 : en:Colored By Blood
00:34:48.086 : en:Soldier of the Revolution
00:37:43.761 : en:Get Over Yourself
00:41:20.812 : en:Freetown Siege
00:47:08.659 : en:Shooting to Kill
00:50:19.683 : en:Using Each Other
00:53:58.235 : en:Unhappy Reunion
00:57:38.622 : en:His Only Chance
01:04:04.007 : en:A Little Bang-Bang
01:08:51.461 : en:Drive to Survive
01:11:17.773 : en:Good Intentions
01:16:19.909 : en:painful History
01:21:18.540 : en:Child Soldier's Target
01:24:27.229 : en:parting Company
01:29:51.720 : en:After Skinning
01:34:16.985 : en:The Master
01:37:39.187 : en:Searching for Dia
01:43:13.020 : en:A Father Forsaken
01:46:02.856 : en:Kill Them All
01:50:56.984 : en:Deadly Digsite
01:56:07.794 : en:I Am Your Father
01:59:04.471 : en:Take Your Boy Home
02:04:21.454 : en:A Real Story Now
02:08:59.065 : en:Solomon Negotiates
02:12:07.753 : en:Third World's Voice; Coda
02:14:56.922 : en:End Credits
Скриншоты


Релиз от: OldGamer
 

Вложения

  • 74,9 KB Просмотры: 0
    Личеров 0
    Сидеров 0
    Файлов 1
    Объем 14,8 GB

Привет!

Мы группа людей которые решили помочь другим в решении их проблем, а так же пользователям с поиском самых свежих и качественных инфопродуктов. За 4 с небольшим месяца мы создали этот форум на который заходят ежедневно тысячи человек и посещаемость постоянно растёт. Мы создали панель лицензирования для защиты PHP скриптов от воровства и SEO панель для мониторинга наших сайтов и выбора верной стратегии их развития. Мы надеемся что то что мы создали пригодится Вам и возможно Вы поможете нам развиваться и совершенствоваться вместе с Вами.

Статистика форума

Темы
404.589
Сообщения
461.466
Пользователи
80.281
Новый пользователь
MrProUk

Приложения форума для iOS и Android


У ркн там нет власти ;)
Приватные разговоры
Помощь Пользователи
    Вы не присоединились ни к одной комнате.