За последнюю неделю опубликовано 91 новых материалов.
Инструкция новичку Путеводитель по форуму Прокси для Telegram Показать подсказки , это бомба!

Скачать Кровавый алмаз / Blood Diamond (2006) BDRip 1080p от KORSAR | D, P2, A бесплатно через торрент

  • Поучаствуй (в качестве покупателя) в любых пяти совместных покупках (кроме завершённых и "Моментальных") и получи группу "Новичок" навсегда -> ссылка на раздел
  • Получай до 480 рублей за каждого приглашенного пользователя!
    представляем Вам очередное расширение партнерской программы, подробности описаны тут -> ссылка
  • 90% материалов доступно к скачиванию после простой регистрации!
    Если же ты хочешь скачивать материалы без требования оставлять отзывы то получи группу "Новичок", 10 способов повышения описаны тут -> ссылка
  • К сожалению количество битых ссылок растет и мы уже не можем их оперативно восстанавливать поэтому просим помощи у каждого нашего пользователя.
    С сегодняшнего дня, за каждую восстановленную ссылку мы заплатим Вам.
    Подробнее тут -> ссылка
  • Перенесем твои заслуги с другого ресурса!
    Мы понимаем как сложно прокачивать аккаунты на форумах, вроде раскачал аккаунт, а тут появляется ресурс в 100 раз круче но тоже с системой прокачки и снова качать аккаунт...
    Предлагаем вам перенести Ваши заслуги на другом подобном ресурсе к нам.
    Подробности описаны тут -> ссылка
  • Вы можете получать по 2.5% с каждой покупки и продажи на маркете! Подробности в теме Партнёрская программа
Если Вы не хотите скачивать, Вы всегда можетепосмотретьонлайн, просто нажмите кнопку ниже :

Открыть плеер

Torrent_Bot

Торрент-Бот
Бот форума
4 Окт 2016
102
152
20






Кровавый алмаз / Blood Diamond
Страна: США, Германия
Год выпуска: 2006
Жанр: Триллер, драма, приключения
Продолжительность: 02:23:21
Режиссер: Эдвард Цвик
В ролях: Леонардо ДиКаприо, Джимон Хонсу, Дженнифер Коннелли, Caruso Kuypers, Арнольд Вослоу, Энтони Коулмэн, Benu Mabhena, Anointing Lukola, Дэвид Хэрвуд, Бейзил Уоллес

Описание: 1999, Сьерра-Леоне. Гражданская война. Кровь и хаос. В этой безрадостной атмосфере орудует ловкий контрабандист, специальность которого - бриллианты. Ему нет особенного дела, что эти камешки используются для дальнейшего нагнетания межнациональной розни. Но однажды контрабандист встречает местного фермера, у которого пропал сын - его, говорят, забрали в «детскую армию», используемую на фронтах гражданской войны. И два разных человека образуют противоестественную коалицию.


Релиз от:


Качество: BDRip 1080р
Формат: MKV
Видео: MPEG-4 AVC, 1920x798, 23.976 fps, 19,8 Мбит/сек
Аудио 1: Russian / AC3, 6 ch / 640 kbps | Профессиональный дублированный (CEE)
Аудио 2: Russian / AC3, 6 ch / 640 kbps | Двухголосый закадровый (П.Гланц и И.Королёва)
Аудио 3: Russian / AC3, 6 ch / 640 kbps | Одноголосый закадровый (А.Гаврилов)
Аудио 3: Russian / AC3, 6 ch / 640 kbps | Одноголосый закадровый (М.Яроцкий)
Аудио 4: Russian / AC3, 6 ch / 640 kbps | Одноголосый закадровый (С.Рябов)
Аудио 5: Russian / AC3, 6 ch / 640 kbps | Одноголосый закадровый (В.Архипов)
Аудио 6: Ukrainian / AC3, 6 ch / 384 kbps | Профессиональный дублированный (R5)
Аудио 7: English / AC3, 6 ch / 640 kbps | Оригинал
Субтитры: Русские, английские
Навигация по главам: Есть

Инфо файл
Для ориентира сравнение с аналогичным 1080р:
https://www.screenshotcomparison.com/comparison/3018/picture:0

x264 [info]: frame I:1511 Avg QP:17.85 size:321438
x264 [info]: frame P:43219 Avg QP:19.04 size:182367
x264 [info]: frame B:161504 Avg QP:21.36 size: 83632
x264 [info]: consecutive B-frames: 1.5% 2.1% 7.2% 18.6% 22.6% 38.8% 4.1% 1.3% 0.6% 1.1% 1.7% 0.5%
Общее
Уникальный идентификатор : 185725776996118911477134765695565672002 (0x8BB97BC90648A84DBE77EF049ACDAE42)
Полное имя : D:Кровавый алмаз_2006-BDRip 1080p_KORSAR.mkv
Формат : Matroska
Версия формата : Version 2
Размер файла : 25,2 Гбайт
Продолжительность : 2 ч. 23 м.
Общий поток : 25,2 Мбит/сек
Название фильма : Кровавый алмаз_2006-BDRip 1080p_KORSAR
Дата кодирования : UTC 2020-05-30 12:00:22
Программа кодирования : mkvmerge v5.8.0 ('No Sleep / Pillow') built on Sep 2 2012 15:37:04
Библиотека кодирования : libebml v1.2.3 + libmatroska v1.3.0
Attachments : korsar.tv.jpg

Видео
Идентификатор : 1
Формат : AVC
Формат/Информация : Advanced Video Codec
Профиль формата : High@L4.1
Настройки формата : CABAC / 5 Ref Frames
Параметр CABAC формата : Да
Параметр RefFrames формата : 5 кадров
Идентификатор кодека : V_MPEG4/ISO/AVC
Продолжительность : 2 ч. 23 м.
Битрейт : 19,8 Мбит/сек
Ширина : 1 920 пикселей
Высота : 798 пикселей
Соотношение сторон : 2,40:1
Режим частоты кадров : Постоянный
Частота кадров : 23,976 (24000/1001) кадра/сек
Цветовое пространство : YUV
Субдискретизация насыщенности : 4:2:0
Битовая глубина : 8 бит
Тип развёртки : Прогрессивная
Бит/(Пиксели*Кадры) : 0.540
Размер потока : 19,9 Гбайт (79%)
Библиотека кодирования : x264 core 152 r2851kMod ba24899
Настройки программы : cabac=1 / ref=5 / deblock=1:-3:-3 / analyse=0x3:0x113 / me=umh / subme=11 / psy=1 / fade_compensate=0.00 / psy_rd=1.05:0.10 / mixed_ref=1 / me_range=48 / chroma_me=1 / trellis=2 / 8x8dct=1 / cqm=0 / deadzone=21,11 / fast_pskip=1 / chroma_qp_offset=-3 / threads=4 / lookahead_threads=1 / sliced_threads=0 / nr=0 / decimate=1 / interlaced=0 / bluray_compat=0 / constrained_intra=0 / bframes=11 / b_pyramid=2 / b_adapt=2 / b_bias=0 / direct=1 / weightb=1 / open_gop=0 / weightp=2 / keyint=240 / keyint_min=23 / scenecut=40 / intra_refresh=0 / rc_lookahead=40 / rc=crf / mbtree=0 / crf=17.5000 / qcomp=0.63 / qpmin=0 / qpmax=33 / qpstep=4 / vbv_maxrate=50000 / vbv_bufsize=62500 / crf_max=0.0 / nal_hrd=none / filler=0 / ip_ratio=1.40 / pb_ratio=1.30 / aq=1:0.70
Язык : English
Default : Да
Forced : Нет
Цветовой диапазон : Limited
Основные цвета : BT.709
Характеристики трансфера : BT.709
Коэффициенты матрицы : BT.709
Duration_Source : General_Duration

Аудио #1
Идентификатор : 2
Формат : AC-3
Формат/Информация : Audio Coding 3
Коммерческое название : Dolby Digital
Идентификатор кодека : A_AC3
Продолжительность : 2 ч. 23 м.
Вид битрейта : Постоянный
Битрейт : 640 Кбит/сек
Каналы : 6 каналов
Channel layout : L R C LFE Ls Rs
Частота : 48,0 КГц
Частота кадров : 31,250 кадров/сек (1536 SPF)
Метод сжатия : С потерями
Размер потока : 656 Мбайт (3%)
Заголовок : DUB - Blu-ray CEE
Язык : Russian

Default : Нет
Forced : Нет
Duration_Source : General_Duration

Аудио #2
Идентификатор : 3
Формат : AC-3
Формат/Информация : Audio Coding 3
Коммерческое название : Dolby Digital
Идентификатор кодека : A_AC3
Продолжительность : 2 ч. 23 м.
Вид битрейта : Постоянный
Битрейт : 640 Кбит/сек
Каналы : 6 каналов
Channel layout : L R C LFE Ls Rs
Частота : 48,0 КГц
Частота кадров : 31,250 кадров/сек (1536 SPF)
Метод сжатия : С потерями
Размер потока : 656 Мбайт (3%)
Заголовок : DVO - Гланц
Язык : Russian

Default : Нет
Forced : Нет
Duration_Source : General_Duration

Аудио #3
Идентификатор : 4
Формат : AC-3
Формат/Информация : Audio Coding 3
Коммерческое название : Dolby Digital
Идентификатор кодека : A_AC3
Продолжительность : 2 ч. 23 м.
Вид битрейта : Постоянный
Битрейт : 640 Кбит/сек
Каналы : 6 каналов
Channel layout : L R C LFE Ls Rs
Частота : 48,0 КГц
Частота кадров : 31,250 кадров/сек (1536 SPF)
Метод сжатия : С потерями
Размер потока : 656 Мбайт (3%)
Заголовок : AVO - Гаврилов
Язык : Russian

Default : Нет
Forced : Нет
Duration_Source : General_Duration

Аудио #4
Идентификатор : 5
Формат : AC-3
Формат/Информация : Audio Coding 3
Коммерческое название : Dolby Digital
Идентификатор кодека : A_AC3
Продолжительность : 2 ч. 23 м.
Вид битрейта : Постоянный
Битрейт : 640 Кбит/сек
Каналы : 6 каналов
Channel layout : L R C LFE Ls Rs
Частота : 48,0 КГц
Частота кадров : 31,250 кадров/сек (1536 SPF)
Метод сжатия : С потерями
Размер потока : 656 Мбайт (3%)
Заголовок : AVO - Яроцкий
Язык : Russian

Default : Нет
Forced : Нет
Duration_Source : General_Duration

Аудио #5
Идентификатор : 6
Формат : AC-3
Формат/Информация : Audio Coding 3
Коммерческое название : Dolby Digital
Идентификатор кодека : A_AC3
Продолжительность : 2 ч. 23 м.
Вид битрейта : Постоянный
Битрейт : 640 Кбит/сек
Каналы : 6 каналов
Channel layout : L R C LFE Ls Rs
Частота : 48,0 КГц
Частота кадров : 31,250 кадров/сек (1536 SPF)
Метод сжатия : С потерями
Размер потока : 656 Мбайт (3%)
Заголовок : AVO - Рябов
Язык : Russian

Default : Нет
Forced : Нет
Duration_Source : General_Duration

Аудио #6
Идентификатор : 7
Формат : AC-3
Формат/Информация : Audio Coding 3
Коммерческое название : Dolby Digital
Идентификатор кодека : A_AC3
Продолжительность : 2 ч. 23 м.
Вид битрейта : Постоянный
Битрейт : 640 Кбит/сек
Каналы : 6 каналов
Channel layout : L R C LFE Ls Rs
Частота : 48,0 КГц
Частота кадров : 31,250 кадров/сек (1536 SPF)
Метод сжатия : С потерями
Размер потока : 656 Мбайт (3%)
Заголовок : AVO - Архипов
Язык : Russian

Default : Нет
Forced : Нет
Duration_Source : General_Duration

Аудио #7
Идентификатор : 8
Формат : AC-3
Формат/Информация : Audio Coding 3
Коммерческое название : Dolby Digital
Идентификатор кодека : A_AC3
Продолжительность : 2 ч. 23 м.
Вид битрейта : Постоянный
Битрейт : 384 Кбит/сек
Каналы : 6 каналов
Channel layout : L R C LFE Ls Rs
Частота : 48,0 КГц
Частота кадров : 31,250 кадров/сек (1536 SPF)
Метод сжатия : С потерями
Размер потока : 394 Мбайт (2%)
Заголовок : DUB - (R5)
Язык : Ukrainian

Default : Нет
Forced : Нет
Duration_Source : General_Duration

Аудио #8
Идентификатор : 9
Формат : AC-3
Формат/Информация : Audio Coding 3
Коммерческое название : Dolby Digital
Идентификатор кодека : A_AC3
Продолжительность : 2 ч. 23 м.
Вид битрейта : Постоянный
Битрейт : 640 Кбит/сек
Каналы : 6 каналов
Channel layout : L R C LFE Ls Rs
Частота : 48,0 КГц
Частота кадров : 31,250 кадров/сек (1536 SPF)
Метод сжатия : С потерями
Размер потока : 656 Мбайт (3%)
Заголовок : Английский
Язык : English

Default : Нет
Forced : Нет
Duration_Source : General_Duration

Текст #1
Идентификатор : 10
Формат : UTF-8
Идентификатор кодека : S_TEXT/UTF8
Идентификатор кодека/Информация : UTF-8 Plain Text
Заголовок : Русские
Язык : Russian
Default : Нет
Forced : Нет

Текст #2
Идентификатор : 11
Формат : UTF-8
Идентификатор кодека : S_TEXT/UTF8
Идентификатор кодека/Информация : UTF-8 Plain Text
Заголовок : Английские
Язык : English
Default : Нет
Forced : Нет

Меню
00:00:00.000 : en:Caught in Revolution's Net
00:06:32.559 : en:Conflict Zone Statistics
00:08:57.537 : en:Danny Negotiates
00:14:38.211 : en:Give It to Me
00:18:05.251 : en:Hidden Stones
00:21:56.482 : en:Meeting Maddy
00:27:35.988 : en:Soldiers and Captives
00:30:43.175 : en:Colored By Blood
00:34:48.086 : en:Soldier of the Revolution
00:37:43.761 : en:Get Over Yourself
00:41:20.812 : en:Freetown Siege
00:47:08.659 : en:Shooting to Kill
00:50:19.683 : en:Using Each Other
00:53:58.235 : en:Unhappy Reunion
00:57:38.622 : en:His Only Chance
01:04:04.007 : en:A Little Bang-Bang
01:08:51.461 : en:Drive to Survive
01:11:17.773 : en:Good Intentions
01:16:19.909 : en:painful History
01:21:18.540 : en:Child Soldier's Target
01:24:27.229 : en:parting Company
01:29:51.720 : en:After Skinning
01:34:16.985 : en:The Master
01:37:39.187 : en:Searching for Dia
01:43:13.020 : en:A Father Forsaken
01:46:02.856 : en:Kill Them All
01:50:56.984 : en:Deadly Digsite
01:56:07.794 : en:I Am Your Father
01:59:04.471 : en:Take Your Boy Home
02:04:21.454 : en:A Real Story Now
02:08:59.065 : en:Solomon Negotiates
02:12:07.753 : en:Third World's Voice; Coda
02:14:56.922 : en:End Credits
Скриншоты
 

Вложения

  • 127,1 KB Просмотры: 0
    Личеров 0
    Сидеров 0
    Файлов 1
    Объем 25,2 GB

Привет!

Мы группа людей которые решили помочь другим в решении их проблем, а так же пользователям с поиском самых свежих и качественных инфопродуктов. За 4 с небольшим месяца мы создали этот форум на который заходят ежедневно тысячи человек и посещаемость постоянно растёт. Мы создали панель лицензирования для защиты PHP скриптов от воровства и SEO панель для мониторинга наших сайтов и выбора верной стратегии их развития. Мы надеемся что то что мы создали пригодится Вам и возможно Вы поможете нам развиваться и совершенствоваться вместе с Вами.

Статистика форума

Темы
404.589
Сообщения
461.467
Пользователи
80.284
Новый пользователь
Zuhra

Приложения форума для iOS и Android


У ркн там нет власти ;)
Приватные разговоры
Помощь Пользователи
    Вы не присоединились ни к одной комнате.