За последнюю неделю опубликовано 35 новых материалов.
Инструкция новичку Путеводитель по форуму Прокси для Telegram Показать подсказки , это бомба!

Скачать Кровавая работа / Blood Work (2002) BDRip-HEVC 1080p | P, A бесплатно через торрент

  • Поучаствуй (в качестве покупателя) в любых пяти совместных покупках (кроме завершённых и "Моментальных") и получи группу "Новичок" навсегда -> ссылка на раздел
  • Получай до 480 рублей за каждого приглашенного пользователя!
    представляем Вам очередное расширение партнерской программы, подробности описаны тут -> ссылка
  • 90% материалов доступно к скачиванию после простой регистрации!
    Если же ты хочешь скачивать материалы без требования оставлять отзывы то получи группу "Новичок", 10 способов повышения описаны тут -> ссылка
  • К сожалению количество битых ссылок растет и мы уже не можем их оперативно восстанавливать поэтому просим помощи у каждого нашего пользователя.
    С сегодняшнего дня, за каждую восстановленную ссылку мы заплатим Вам.
    Подробнее тут -> ссылка
  • Перенесем твои заслуги с другого ресурса!
    Мы понимаем как сложно прокачивать аккаунты на форумах, вроде раскачал аккаунт, а тут появляется ресурс в 100 раз круче но тоже с системой прокачки и снова качать аккаунт...
    Предлагаем вам перенести Ваши заслуги на другом подобном ресурсе к нам.
    Подробности описаны тут -> ссылка
  • Вы можете получать по 2.5% с каждой покупки и продажи на маркете! Подробности в теме Партнёрская программа
Если Вы не хотите скачивать, Вы всегда можетепосмотретьонлайн, просто нажмите кнопку ниже :

Открыть плеер

Torrent_Bot

Торрент-Бот
Бот форума
4 Окт 2016
93
160
20



Название: Кровавая работа
Оригинальное название: Blood Work
Год выхода: 2002
Жанр: боевик, триллер, драма, криминал
Режиссер: Клинт Иствуд
В ролях: Клинт Иствуд, Джефф Дэниелс, Анжелика Хьюстон, Ванда Де Хесус, Тина Лиффорд, Пол Родригес, Дилан Уолш, Мэйсон Лучеро, Джерри Бекер, Рик Хоффман

О фильме: Терри МакКалеб — бывший агент ФБР, специализирующийся на серийных убийствах, перенес операцию по пересадке сердца и теперь находится на пенсии, теша себя починкой своей лодки. Но его талант вновь востребован, и он получает новое задание. А нанимает его некто Граселия Риверс для того, чтобы он расследовал причину гибели ее сестры, сердце которой и было пересажено Терри. Расследование выявило очень интересные факты: сестра Граселии была убита, и убийство было обставлено как инцидент во время ограбления. А убийцей, возможно, был человек, за которым Терри охотился многие годы. Непростая работа для престарелого и имеющего проблемы с сердцем шпиона, который предполагал совсем иначе распорядиться своим временем.



Страна: США
Студия: Malpaso Productions
Продолжительность: 01:50:29
Перевод: Профессиональный многоголосый, авторский одноголосый

Качество: BDRip-HEVC 1080p
Кодек: HEVC (x265)
Видео: 1920x800 (2,40:1), 8036 кбит/сек, 0.218 бит/(Пиксели*Кадры), 23.976 (24000/1001) кадр/сек, HEVC ([email protected]@High) 10 бит
Звук:
Аудио1: AC3, 6 ch, 448 Kbps - русский Многоголосый
Аудио2: AC3, 6 ch, 384 Kbps - русский Многоголосый (Премьер Мультимедиа)
Аудио3: AC3, 6 ch, 640 Kbps - русский Авторский (Юрий Живов)
Аудио4: AC3, 2 ch, 192 Kbps - русский Авторский (Андрей Гаврилов)
Аудио5: AC3, 6 ch, 640 Kbps - english Original
Субтитры: Русские полные (SRT), English full (SRT)
Навигация по главам: Есть

Mediainfo
x265 info: frame I: 669, Avg QP:17.59 kb/s: 20127.76
x265 info: frame P: 23773, Avg QP:18.88 kb/s: 14794.39
x265 info: frame B: 134510, Avg QP:20.81 kb/s: 6781.05
x265 info: Weighted P-Frames: Y:8.6% UV:6.2%
x265 info: Weighted B-Frames: Y:8.0% UV:5.3%
x265 info: consecutive B-frames: 2.9% 2.1% 4.3% 19.5% 9.3% 21.5% 8.3% 11.0% 6.1% 5.4% 3.0% 2.9% 1.3% 0.9% 0.7% 0.9%
x265 info: encoded 158952 frames in 196975.34s (0.81 fps), 8035.70 kb/s, Avg QP:20.50

Формат : Matroska
Версия формата : Version 4
Размер файла : 7,98 Гбайт
Продолжительность : 1 ч. 50 м.
Общий поток : 10,3 Мбит/сек
Название фильма : Blood Work
Описание : Retired FBI profiler Terry McCaleb (Eastwood), who has recently had a heart transplant, is hired by Graciela Rivers (De Jesus), to investigate the death of her sister, Gloria, who happens to have given McCaleb his heart. On the case, he soon deduces that the killer, who staged the murder to look like a random robbery, may actually be a serial killer Terry was trailing for years in the FBI. Can the elderly and feeble McCaleb, who had intended to spend his retirement living on his boat in the Los Angeles harbor, and who can't drive, and has to nap regularly, muster up the endurance to find the killer?
Дата кодирования : UTC 2019-06-18 14:38:00
Программа кодирования : mkvmerge v34.0.0 ('Sight and Seen') 64-bit
Библиотека кодирования : libebml v1.3.7 + libmatroska v1.5.0 / Lavf57.71.100
Примечание : Rip by OldGamer
Attachments : poster.jpg
ACTORS : Clint Eastwood, Jeff Daniels, Anjelica Huston, Wanda De Jesus
COUNTRY : USA
DATE : 2002
DIRECTOR : Clint Eastwood
ENCODING_INFO : MATROSKA,WEBM > MKV / H264 > X265 CRF 19.0 Very Slow / AC3 > COPY Безопасное / AC3 > COPY Безопасное / AC3 > COPY Безопасное / DTS-HD MA > AC3 CBR 864kbps / DTS-HD MA > AC3 CBR 864kbps
GENRE : Action, Crime, Drama, Mystery, Thriller
HD_VIDEO : 1
IMDB_RATING : 6.4
ITUNEXTC : mpaa|R|400|
Язык : und
MEDIA_TYPE : 9
WRITER : Michael Connelly (novel), Brian Helgeland (screenplay)

Видео
Идентификатор : 1
Формат : HEVC
Формат/Информация : High Efficiency Video Coding
Профиль формата : Main [email protected]@High
Идентификатор кодека : V_MPEGH/ISO/HEVC
Продолжительность : 1 ч. 50 м.
Битрейт : 8036 Кбит/сек
Ширина : 1920 пикселей
Высота : 800 пикселей
Соотношение сторон : 2,40:1
Режим частоты кадров : Постоянный
Частота кадров : 23,976 (24000/1001) кадра/сек
Цветовое пространство : YUV
Субдискретизация насыщенности : 4:2:0
Битовая глубина : 10 бит
Бит/(Пиксели*Кадры) : 0.218
Размер потока : 6,20 Гбайт (78%)
Заголовок : Blood Work / Rip by OldGamer
Библиотека кодирования : x265 2.9+9-f74003e88622:[Mac OS X][clang 10.0.0][64 bit] 10bit
Настройки программы : cpuid=1111039 / frame-threads=14 / wpp / no-pmode / no-pme / no-psnr / no-ssim / log-level=3 / input-csp=1 / input-res=1920x800 / interlace=0 / total-frames=0 / level-idc=41 / high-tier=1 / uhd-bd=0 / ref=5 / allow-non-conformance / no-repeat-headers / annexb / no-aud / no-hrd / info / hash=0 / no-temporal-layers / open-gop / min-keyint=23 / keyint=240 / gop-lookahead=0 / bframes=15 / b-adapt=2 / b-pyramid / bframe-bias=0 / rc-lookahead=60 / lookahead-slices=5 / scenecut=40 / radl=0 / no-intra-refresh / ctu=64 / min-cu-size=8 / rect / amp / max-tu-size=32 / tu-inter-depth=4 / tu-intra-depth=4 / limit-tu=1 / rdoq-level=2 / dynamic-rd=0.00 / no-ssim-rd / signhide / no-tskip / nr-intra=0 / nr-inter=0 / no-constrained-intra / no-strong-intra-smoothing / max-merge=5 / limit-refs=2 / no-limit-modes / me=3 / subme=7 / merange=57 / temporal-mvp / weightp / weightb / no-analyze-src-pics / deblock=-3:-3 / no-sao / no-sao-non-deblock / rd=6 / no-early-skip / rskip / no-fast-intra / no-tskip-fast / no-cu-lossless / no-b-intra / no-splitrd-skip / rdpenalty=0 / psy-rd=2.00 / psy-rdoq=1.00 / no-rd-refine / no-lossless / cbqpoffs=0 / crqpoffs=0 / rc=crf / crf=19.0 / qcomp=0.60 / qpstep=4 / stats-write=0 / stats-read=0 / vbv-maxrate=50000 / vbv-bufsize=50000 / vbv-init=0.9 / crf-max=0.0 / crf-min=0.0 / ipratio=1.40 / pbratio=1.30 / aq-mode=3 / aq-strength=0.80 / no-cutree / zone-count=1 / zones: / start-frame=152889 / end-frame=158938 / qp=35 / no-strict-cbr / qg-size=32 / no-rc-grain / qpmax=69 / qpmin=0 / no-const-vbv / sar=1 / overscan=0 / videoformat=5 / range=0 / colorprim=2 / transfer=2 / colormatrix=2 / chromaloc=0 / display-window=0 / max-cll=0,0 / min-luma=0 / max-luma=1023 / log2-max-poc-lsb=8 / vui-timing-info / vui-hrd-info / slices=1 / no-opt-qp-pps / no-opt-ref-list-length-pps / no-multi-pass-opt-rps / scenecut-bias=0.00 / no-opt-cu-delta-qp / aq-motion / no-hdr / no-hdr-opt / no-dhdr10-opt / no-idr-recovery-sei / analysis-reuse-level=5 / scale-factor=0 / refine-intra=0 / refine-inter=0 / refine-mv=0 / no-limit-sao / ctu-info=0 / no-lowpass-dct / refine-mv-type=0 / copy-pic=1 / max-ausize-factor=1.0 / no-dynamic-refine / no-single-sei
Язык : English
Default : Да
Forced : Нет
Цветовой диапазон : Limited

Аудио #1
Идентификатор : 2
Формат : AC-3
Формат/Информация : Audio Coding 3
Коммерческое название : Dolby Digital
Идентификатор кодека : A_AC3
Продолжительность : 1 ч. 50 м.
Вид битрейта : Постоянный
Битрейт : 448 Кбит/сек
Каналы : 6 каналов
Channel layout : L R C LFE Ls Rs
Частота : 48,0 КГц
Частота кадров : 31,250 кадров/сек (1536 SPF)
Битовая глубина : 16 бит
Метод сжатия : С потерями
Размер потока : 354 Мбайт (4%)
Заголовок : MVO
Язык : Russian
ServiceKind/ : Complete Main
Default : Нет
Forced : Нет

Аудио #2
Идентификатор : 3
Формат : AC-3
Формат/Информация : Audio Coding 3
Коммерческое название : Dolby Digital
Идентификатор кодека : A_AC3
Продолжительность : 1 ч. 50 м.
Вид битрейта : Постоянный
Битрейт : 384 Кбит/сек
Каналы : 6 каналов
Channel layout : L R C LFE Ls Rs
Частота : 48,0 КГц
Частота кадров : 31,250 кадров/сек (1536 SPF)
Битовая глубина : 16 бит
Метод сжатия : С потерями
Размер потока : 304 Мбайт (4%)
Заголовок : MVO (Премьер Мультимедия)
Язык : Russian
ServiceKind/ : Complete Main
Default : Да
Forced : Нет

Аудио #3
Идентификатор : 4
Формат : AC-3
Формат/Информация : Audio Coding 3
Коммерческое название : Dolby Digital
Идентификатор кодека : A_AC3
Продолжительность : 1 ч. 50 м.
Вид битрейта : Постоянный
Битрейт : 640 Кбит/сек
Каналы : 6 каналов
Channel layout : L R C LFE Ls Rs
Частота : 48,0 КГц
Частота кадров : 31,250 кадров/сек (1536 SPF)
Битовая глубина : 16 бит
Метод сжатия : С потерями
Размер потока : 506 Мбайт (6%)
Заголовок : AVO (Юрий Живов)
Язык : Russian
ServiceKind/ : Complete Main
Default : Нет
Forced : Нет

Аудио #4
Идентификатор : 5
Формат : AC-3
Формат/Информация : Audio Coding 3
Коммерческое название : Dolby Digital
Идентификатор кодека : A_AC3
Продолжительность : 1 ч. 50 м.
Вид битрейта : Постоянный
Битрейт : 192 Кбит/сек
Каналы : 2 канала
Channel layout : L R
Частота : 48,0 КГц
Частота кадров : 31,250 кадров/сек (1536 SPF)
Битовая глубина : 16 бит
Метод сжатия : С потерями
Размер потока : 152 Мбайт (2%)
Заголовок : AVO (Андрей Гаврилов)
Язык : Russian
ServiceKind/ : Complete Main
Default : Нет
Forced : Нет

Аудио #5
Идентификатор : 6
Формат : AC-3
Формат/Информация : Audio Coding 3
Коммерческое название : Dolby Digital
Идентификатор кодека : A_AC3
Продолжительность : 1 ч. 50 м.
Вид битрейта : Постоянный
Битрейт : 640 Кбит/сек
Каналы : 6 каналов
Channel layout : L R C LFE Ls Rs
Частота : 48,0 КГц
Частота кадров : 31,250 кадров/сек (1536 SPF)
Битовая глубина : 16 бит
Метод сжатия : С потерями
Размер потока : 506 Мбайт (6%)
Язык : English
ServiceKind/ : Complete Main
Default : Нет
Forced : Нет

Текст #1
Идентификатор : 7
Формат : UTF-8
Идентификатор кодека : S_TEXT/UTF8
Идентификатор кодека/Информация : UTF-8 Plain Text
Продолжительность : 1 ч. 47 м.
Битрейт : 90 бит/сек
ElementCount : 1245
Размер потока : 70,9 Кбайт (0%)
Заголовок : R5
Язык : Russian
Default : Нет
Forced : Нет

Текст #2
Идентификатор : 8
Формат : UTF-8
Идентификатор кодека : S_TEXT/UTF8
Идентификатор кодека/Информация : UTF-8 Plain Text
Продолжительность : 1 ч. 50 м.
Битрейт : 57 бит/сек
ElementCount : 1272
Размер потока : 46,3 Кбайт (0%)
Язык : English
Default : Нет
Forced : Нет

Меню
00:00:00.000 : :00:00:00.000
00:03:49.604 : :00:03:49.604
00:07:19.606 : :00:07:19.606
00:10:25.124 : :00:10:25.124
00:13:40.236 : :00:13:40.236
00:19:00.639 : :00:19:00.639
00:22:06.075 : :00:22:06.075
00:23:55.893 : :00:23:55.893
00:28:42.012 : :00:28:42.012
00:31:01.193 : :00:31:01.193
00:32:58.435 : :00:32:58.435
00:37:37.213 : :00:37:37.213
00:43:12.840 : :00:43:12.840
00:44:43.222 : :00:44:43.222
00:50:31.695 : :00:50:31.695
00:52:23.432 : :00:52:23.432
00:56:06.863 : :00:56:06.863
01:00:48.103 : :01:00:48.103
01:04:44.255 : :01:04:44.255
01:09:39.926 : :01:09:39.926
01:13:45.129 : :01:13:45.129
01:15:38.284 : :01:15:38.284
01:17:17.842 : :01:17:17.842
01:20:36.165 : :01:20:36.165
01:23:00.267 : :01:23:00.267
01:27:13.270 : :01:27:13.270
01:33:13.880 : :01:33:13.880
01:36:14.894 : :01:36:14.894
01:39:45.980 : :01:39:45.980
01:42:33.814 : :01:42:33.814
01:44:03.237 : :01:44:03.237
01:46:09.363 : :01:46:09.363
Скриншоты


Автор: OldGamer
 

Вложения

  • 21 KB Просмотры: 1
    Личеров 0
    Сидеров 0
    Файлов 1
    Объем 8 GB

Привет!

Мы группа людей которые решили помочь другим в решении их проблем, а так же пользователям с поиском самых свежих и качественных инфопродуктов. За 4 с небольшим месяца мы создали этот форум на который заходят ежедневно тысячи человек и посещаемость постоянно растёт. Мы создали панель лицензирования для защиты PHP скриптов от воровства и SEO панель для мониторинга наших сайтов и выбора верной стратегии их развития. Мы надеемся что то что мы создали пригодится Вам и возможно Вы поможете нам развиваться и совершенствоваться вместе с Вами.

Статистика форума

Темы
406.602
Сообщения
464.995
Пользователи
84.324
Новый пользователь
sosigeisosigei

Приложения форума для iOS и Android


У ркн там нет власти ;)
Приватные разговоры
Помощь Пользователи
    Вы не присоединились ни к одной комнате.