За последнюю неделю опубликовано 47 новых материалов.
Инструкция новичку Путеводитель по форуму Прокси для Telegram Показать подсказки , это бомба!

Скачать Кровь за кровь / Четыре брата / Four Brothers (2005) HDRip-AVC | D бесплатно через торрент

  • Поучаствуй (в качестве покупателя) в любых пяти совместных покупках (кроме завершённых и "Моментальных") и получи группу "Новичок" навсегда -> ссылка на раздел
  • Получай до 480 рублей за каждого приглашенного пользователя!
    представляем Вам очередное расширение партнерской программы, подробности описаны тут -> ссылка
  • 90% материалов доступно к скачиванию после простой регистрации!
    Если же ты хочешь скачивать материалы без требования оставлять отзывы то получи группу "Новичок", 10 способов повышения описаны тут -> ссылка
  • К сожалению количество битых ссылок растет и мы уже не можем их оперативно восстанавливать поэтому просим помощи у каждого нашего пользователя.
    С сегодняшнего дня, за каждую восстановленную ссылку мы заплатим Вам.
    Подробнее тут -> ссылка
  • Перенесем твои заслуги с другого ресурса!
    Мы понимаем как сложно прокачивать аккаунты на форумах, вроде раскачал аккаунт, а тут появляется ресурс в 100 раз круче но тоже с системой прокачки и снова качать аккаунт...
    Предлагаем вам перенести Ваши заслуги на другом подобном ресурсе к нам.
    Подробности описаны тут -> ссылка
  • Вы можете получать по 2.5% с каждой покупки и продажи на маркете! Подробности в теме Партнёрская программа
Если Вы не хотите скачивать, Вы всегда можетепосмотретьонлайн, просто нажмите кнопку ниже :

Открыть плеер

Torrent_Bot

Торрент-Бот
Бот форума
4 Окт 2016
93
160
20

Информация о фильме
Название: Кровь за кровь / Четыре брата
Оригинальное название: Four Brothers
Год выхода: 2005
Жанр: боевик, драма, криминал
Режиссер: Джон Синглтон
В ролях: Марк Уолберг, Тайриз Гибсон, Андре Бенджамин, Гаррет Хедлунд, Терренс Дэшон Ховард, Джош Чарльз, София Вергара, Фионнула Флэнеган, Чиветель Эджиофор

О фильме:
Четверо приемных сыновей женщины, которая была убита во время ограбления бакалейной лавки, собираются на ее похоронах и решают найти виновного в гибели их матери. Разыскивая убийцу, четверо мстителей начинают понимать, что действуя столь отсталыми методами, они в итоге навлекут на себя большие неприятности. Чем больше братья занимаются поисками, тем ближе они становятся друг другу, осознавая, что родство душ связывает людей гораздо крепче, чем кровные узы.



Страна: США
Продолжительность: 01:48:46
Перевод: Дублированный
Субтитры: Russian, English

Файл
Формат: Matroska
Качество: HDRip-AVC
Видео: 720x306 at 23.976 fps, x264, ~892 kbps, 0.169 bpp
Аудио: AAC, 2 ch, ~64 kbps - | Русский | -
Формат субтитров: softsub (SRT)

***Релиз от:-=DoMiNo=-

M/I
x264 [info]: frame I:1338 Avg QP:18.34 size: 28455
x264 [info]: frame P:36937 Avg QP:19.66 size: 10164
x264 [info]: frame B:118205 Avg QP:22.24 size: 2635

General
Format : Matroska
Format version : Version 4
File size : 745 MiB
Duration : 1 h 48 min
Overall bit rate : 958 kb/s
Movie name : Кровь за кровь.(2005).HDRip-AVC.[-=DoMiNo=-]
Encoded date : UTC 2020-05-16 05:59:46
Writing application : mkvmerge v46.0.0 ('No Deeper Escape') 64-bit
Writing library : libebml v1.3.10 + libmatroska v1.5.2
Cover : Yes
Attachments : cover.jpg / cover 2.jpg

Video
ID : 1
Format : AVC
Format/Info : Advanced Video Codec
Format profile : [email protected]
Format settings : CABAC / 12 Ref Frames
Format settings, CABAC : Yes
Format settings, Reference : 12 frames
Codec ID : V_MPEG4/ISO/AVC
Duration : 1 h 48 min
Bit rate : 892 kb/s
Width : 720 pixels
Height : 306 pixels
Display aspect ratio : 2.35:1
Frame rate mode : Constant
Frame rate : 23.976 (24000/1001) FPS
Color space : YUV
Chroma subsampling : 4:2:0
Bit depth : 8 bits
Scan type : Progressive
Bits/(Pixel*Frame) : 0.169
Stream size : 694 MiB (93%)
Title : RIP BY -=DoMiNo=-
Writing library : x264 core 160 r3000 33f9e14
Encoding settings : cabac=1 / ref=12 / deblock=1:-1:-1 / analyse=0x3:0x133 / me=umh / subme=11 / psy=1 / psy_rd=1.00:0.00 / mixed_ref=1 / me_range=32 / chroma_me=1 / trellis=2 / 8x8dct=1 / cqm=0 / deadzone=21,11 / fast_pskip=0 / chroma_qp_offset=-2 / threads=6 / lookahead_threads=1 / sliced_threads=0 / nr=0 / decimate=0 / interlaced=0 / bluray_compat=0 / constrained_intra=0 / bframes=12 / b_pyramid=2 / b_adapt=2 / b_bias=0 / direct=3 / weightb=1 / open_gop=0 / weightp=2 / keyint=250 / keyint_min=23 / scenecut=40 / intra_refresh=0 / rc_lookahead=60 / rc=2pass / mbtree=0 / bitrate=892 / ratetol=1.0 / qcomp=0.65 / qpmin=0 / qpmax=69 / qpstep=4 / cplxblur=20.0 / qblur=0.5 / vbv_maxrate=50000 / vbv_bufsize=62500 / nal_hrd=none / filler=0 / ip_ratio=1.40 / pb_ratio=1.30 / aq=1:1.00
Language : English
Default : Yes
Forced : No
Color range : Limited
Color primaries : BT.709
Transfer characteristics : BT.709
Matrix coefficients : BT.709

Audio
ID : 2
Format : AAC LC SBR
Format/Info : Advanced Audio Codec Low Complexity with Spectral Band Replication
Commercial name : HE-AAC
Format settings : Implicit
Codec ID : A_AAC-2
Duration : 1 h 48 min
Bit rate : 64.0 kb/s
Channel(s) : 2 channels
Channel layout : L R
Sampling rate : 48.0 kHz
Frame rate : 23.438 FPS (2048 SPF)
Compression mode : Lossy
Stream size : 49.8 MiB (7%)
Title : DUB
Language : Russian
Default : Yes
Forced : No

Text #1
ID : 3
Format : UTF-8
Codec ID : S_TEXT/UTF8
Codec ID/Info : UTF-8 Plain Text
Duration : 1 h 44 min
Bit rate : 111 b/s
Count of elements : 1607
Stream size : 85.2 KiB (0%)
Language : Russian
Default : No
Forced : No

Text #2
ID : 4
Format : UTF-8
Codec ID : S_TEXT/UTF8
Codec ID/Info : UTF-8 Plain Text
Duration : 1 h 44 min
Bit rate : 77 b/s
Count of elements : 1630
Stream size : 59.4 KiB (0%)
Language : English
Default : No
Forced : No

Menu
00:00:00.000 : en:Miss Evelyn
00:07:21.523 : en:Straight-Ish
00:14:01.757 : en:La Vida Loca
00:20:08.290 : en:Can't All Be Saints
00:28:59.988 : en:Upstanding Citizens
00:34:45.123 : en:The Witness
00:39:55.851 : en:Shooters
00:47:55.080 : en:Victor Sweet
00:53:31.750 : en:Chasing Down Leads
01:00:06.603 : en:Betrayals
01:08:35.861 : en:House Call
01:16:32.546 : en:Dirty Uniform
01:25:20.113 : en:Waiting for the Call
01:32:06.395 : en:Take on the Champ
01:41:19.823 : en:Back Home
01:48:46.269 : en:Miss Evelyn
Скриншоты
 

Вложения

  • 30,2 KB Просмотры: 0
    Личеров 0
    Сидеров 0
    Файлов 1
    Объем 745,4 MB

Привет!

Мы группа людей которые решили помочь другим в решении их проблем, а так же пользователям с поиском самых свежих и качественных инфопродуктов. За 4 с небольшим месяца мы создали этот форум на который заходят ежедневно тысячи человек и посещаемость постоянно растёт. Мы создали панель лицензирования для защиты PHP скриптов от воровства и SEO панель для мониторинга наших сайтов и выбора верной стратегии их развития. Мы надеемся что то что мы создали пригодится Вам и возможно Вы поможете нам развиваться и совершенствоваться вместе с Вами.

Статистика форума

Темы
406.639
Сообщения
465.110
Пользователи
84.582
Новый пользователь
mladshiy

Приложения форума для iOS и Android


У ркн там нет власти ;)
Приватные разговоры
Помощь Пользователи
    Вы не присоединились ни к одной комнате.