За последнюю неделю опубликовано 57 новых материалов.
Инструкция новичку Путеводитель по форуму Прокси для Telegram Показать подсказки , это бомба!

Скачать Кровь в Венеции / Giallo a Venezia (1979) BDRip 1080p | L1 бесплатно через торрент

  • Поучаствуй (в качестве покупателя) в любых пяти совместных покупках (кроме завершённых и "Моментальных") и получи группу "Новичок" навсегда -> ссылка на раздел
  • Получай до 480 рублей за каждого приглашенного пользователя!
    представляем Вам очередное расширение партнерской программы, подробности описаны тут -> ссылка
  • 90% материалов доступно к скачиванию после простой регистрации!
    Если же ты хочешь скачивать материалы без требования оставлять отзывы то получи группу "Новичок", 10 способов повышения описаны тут -> ссылка
  • К сожалению количество битых ссылок растет и мы уже не можем их оперативно восстанавливать поэтому просим помощи у каждого нашего пользователя.
    С сегодняшнего дня, за каждую восстановленную ссылку мы заплатим Вам.
    Подробнее тут -> ссылка
  • Перенесем твои заслуги с другого ресурса!
    Мы понимаем как сложно прокачивать аккаунты на форумах, вроде раскачал аккаунт, а тут появляется ресурс в 100 раз круче но тоже с системой прокачки и снова качать аккаунт...
    Предлагаем вам перенести Ваши заслуги на другом подобном ресурсе к нам.
    Подробности описаны тут -> ссылка
  • Вы можете получать по 2.5% с каждой покупки и продажи на маркете! Подробности в теме Партнёрская программа
Если Вы не хотите скачивать, Вы всегда можетепосмотретьонлайн, просто нажмите кнопку ниже :

Открыть плеер

Torrent_Bot

Торрент-Бот
Бот форума
4 Окт 2016
92
160
20



Информация о фильме
Название: Кровь в Венеции / Венецианский джалло, Джалло в Венеции
Оригинальное название: Giallo a Venezia
Год выхода: 1979
Жанр: Детектив, криминал, триллер
Режиссер: Марио Ланди
В ролях: Леонора Фани, Джефф Блинн, Джанни Деи, Michele Renzullo, Эоло Капритти, Вассили Керис, Джанкарло Дель Дука, Марианджела Джордано, Giuseppe Curia, Лучано Фоти

О фильме:
На набережной в Венеции обнаруживают тела молодой пары — мужчину убили чем-то острым, а женщина погибла от утопления. Инспектора Де Поля смущает факт, что преступник вытащил жертву из воды, да и живущий рядом старик, возможный свидетель, отказывается сотрудничать. Пообщавшись с подругой погибших супругов Марцией, детектив узнаёт, что вкусы мужа были весьма специфичны, а друзья были не прочь поучаствовать в оргиях. Марция также получает звонки с угрозами, и вскоре происходит убийство проститутки.



Страна: Италия
Студия: Elea Cinematografica
Продолжительность: 01:38:47
Перевод: Любительский (одноголосый) закадровый (Horror Maker)

Файл
Кодек: h.264
Качество: BDRip 1080p
Видео: MPEG4/AVC, 1800х1080, 10.5 Mb/s, 23.976 FPS
Аудио #1: AC3, 2 ch, 192 kbps - Русский (VO Horror Maker)
Аудио #2: AAC, 2 ch, 320 kbps - Итальянский (Original)
Субтитры: Английские (*srt)
MI:
General
Unique ID : 98246607982560509729721558746205319549 (0x49E99BC1BA6F94B89B16F57A8008F17D)
Complete name : F:Новая папка (26)Giallo.a.Venezia.1979.BDRip 1080p.mkv
Format : Matroska
Format version : Version 4
File size : 7.57 GiB
Duration : 1 h 38 min
Overall bit rate : 11.0 Mb/s
Movie name : Giallo.a.Venezia.1979.BDRip 1080p
Encoded date : UTC 2019-09-17 15:48:03
Writing application : mkvmerge v29.0.0 ('Like It Or Not') 64-bit
Writing library : libebml v1.3.6 + libmatroska v1.4.9

Video
ID : 1
Format : AVC
Format/Info : Advanced Video Codec
Format profile : [email protected]
Format settings : CABAC / 4 Ref Frames
Format settings, CABAC : Yes
Format settings, RefFrames : 4 frames
Codec ID : V_MPEG4/ISO/AVC
Duration : 1 h 38 min
Bit rate : 10.5 Mb/s
Width : 1 800 pixels
Height : 1 080 pixels
Display aspect ratio : 5:3
Frame rate mode : Constant
Frame rate : 23.976 (24000/1001) FPS
Color space : YUV
Chroma subsampling : 4:2:0
Bit depth : 8 bits
Scan type : Progressive
Bits/(Pixel*Frame) : 0.224
Stream size : 7.22 GiB (95%)
Title : Giallo.a.Venezia.1979.BDRip 1080p
Writing library : x264 core 152 r2854 e9a5903
Encoding settings : cabac=1 / ref=4 / deblock=1:-3:-3 / analyse=0x3:0x133 / me=umh / subme=10 / psy=1 / psy_rd=1.00:0.00 / mixed_ref=1 / me_range=32 / chroma_me=1 / trellis=2 / 8x8dct=1 / cqm=0 / deadzone=21,11 / fast_pskip=0 / chroma_qp_offset=-2 / threads=9 / lookahead_threads=2 / sliced_threads=0 / nr=0 / decimate=0 / interlaced=0 / bluray_compat=0 / constrained_intra=0 / bframes=16 / b_pyramid=2 / b_adapt=2 / b_bias=0 / direct=3 / weightb=1 / open_gop=0 / weightp=1 / keyint=240 / keyint_min=24 / scenecut=40 / intra_refresh=0 / rc_lookahead=60 / rc=crf / mbtree=0 / crf=23.0 / qcomp=0.65 / qpmin=0 / qpmax=69 / qpstep=4 / vbv_maxrate=62500 / vbv_bufsize=78125 / crf_max=0.0 / nal_hrd=none / filler=0 / ip_ratio=1.40 / pb_ratio=1.30 / aq=2:0.80
Default : Yes
Forced : No
Color range : Limited
Color primaries : BT.709
Transfer characteristics : BT.709
Matrix coefficients : BT.709

Audio #1
ID : 2
Format : AC-3
Format/Info : Audio Coding 3
Commercial name : Dolby Digital
Codec ID : A_AC3
Duration : 1 h 38 min
Bit rate mode : Constant
Bit rate : 192 kb/s
Channel(s) : 2 channels
Channel layout : L R
Sampling rate : 48.0 kHz
Frame rate : 31.250 FPS (1536 SPF)
Bit depth : 16 bits
Compression mode : Lossy
Stream size : 136 MiB (2%)
Title : VO (Horror Maker)
Language : Russian
Service kind : Complete Main
Default : Yes
Forced : No

Audio #2
ID : 3
Format : AAC LC
Format/Info : Advanced Audio Codec Low Complexity
Codec ID : A_AAC-2
Duration : 1 h 38 min
Bit rate : 320 kb/s
Channel(s) : 2 channels
Channel layout : L R
Sampling rate : 48.0 kHz
Frame rate : 46.875 FPS (1024 SPF)
Compression mode : Lossy
Delay relative to video : 9 ms
Stream size : 226 MiB (3%)
Title : Original
Language : Italian
Default : No
Forced : No

Text
ID : 4
Format : UTF-8
Codec ID : S_TEXT/UTF8
Codec ID/Info : UTF-8 Plain Text
Duration : 1 h 33 min
Bit rate : 37 b/s
Count of elements : 841
Stream size : 25.8 KiB (0%)
Language : English
Default : No
Forced : No

Menu
00:00:00.000 : :Chapter 1
00:15:00.942 : :Chapter 2
00:33:16.036 : :Chapter 3
00:51:05.145 : :Chapter 4
01:09:31.250 : :Chapter 5
01:22:08.966 : :Chapter 6
Скриншоты
 

Вложения

  • 152,3 KB Просмотры: 0
    Личеров 0
    Сидеров 0
    Файлов 1
    Объем 7,6 GB

Привет!

Мы группа людей которые решили помочь другим в решении их проблем, а так же пользователям с поиском самых свежих и качественных инфопродуктов. За 4 с небольшим месяца мы создали этот форум на который заходят ежедневно тысячи человек и посещаемость постоянно растёт. Мы создали панель лицензирования для защиты PHP скриптов от воровства и SEO панель для мониторинга наших сайтов и выбора верной стратегии их развития. Мы надеемся что то что мы создали пригодится Вам и возможно Вы поможете нам развиваться и совершенствоваться вместе с Вами.

Статистика форума

Темы
406.651
Сообщения
465.096
Пользователи
84.641
Новый пользователь
Вова 1611

Приложения форума для iOS и Android


У ркн там нет власти ;)
Приватные разговоры
Помощь Пользователи
    Вы не присоединились ни к одной комнате.