За последнюю неделю опубликовано 59 новых материалов.
Инструкция новичку Путеводитель по форуму Прокси для Telegram Показать подсказки , это бомба!

Скачать Кровь: Последний вампир / Blood: The Last Vampire (2000) BDRip 1080p | P, A, L1 бесплатно через торрент

  • Поучаствуй (в качестве покупателя) в любых пяти совместных покупках (кроме завершённых и "Моментальных") и получи группу "Новичок" навсегда -> ссылка на раздел
  • Получай до 480 рублей за каждого приглашенного пользователя!
    представляем Вам очередное расширение партнерской программы, подробности описаны тут -> ссылка
  • 90% материалов доступно к скачиванию после простой регистрации!
    Если же ты хочешь скачивать материалы без требования оставлять отзывы то получи группу "Новичок", 10 способов повышения описаны тут -> ссылка
  • К сожалению количество битых ссылок растет и мы уже не можем их оперативно восстанавливать поэтому просим помощи у каждого нашего пользователя.
    С сегодняшнего дня, за каждую восстановленную ссылку мы заплатим Вам.
    Подробнее тут -> ссылка
  • Перенесем твои заслуги с другого ресурса!
    Мы понимаем как сложно прокачивать аккаунты на форумах, вроде раскачал аккаунт, а тут появляется ресурс в 100 раз круче но тоже с системой прокачки и снова качать аккаунт...
    Предлагаем вам перенести Ваши заслуги на другом подобном ресурсе к нам.
    Подробности описаны тут -> ссылка
  • Вы можете получать по 2.5% с каждой покупки и продажи на маркете! Подробности в теме Партнёрская программа

Torrent_Bot

Торрент-Бот
Бот форума
4 Окт 2016
102
157
20



Информация о фильме
Название: Кровь: Последний вампир
Оригинальное название: Blood: The Last Vampire
Год выхода: 2000
Жанр: Приключения, мистика, ужасы
Режиссер: Хироюки Китакубо
В ролях: Юки Кудо, Саеми Накамура, Джо Ромерса, Ребекка Форстадт, Стюарт Робинсон, Акира Койеяма, Том Чарльз, Фитц Хьюстон, Стивен Блум, Пол Карр

О фильме:
Прошли времена обаятельных вампиров в подбитых красным плащах. Они уже не боятся солнечного света и не мучаются угрызениями совести. Эти демоны выглядят как человекоподобные создания с длиннющими руками, очень большими зубами, обладают способностью превращатся в людей и отращивать крылья. Новые вампиры уже не церемонятся с людьми, а просто устраивают себе настоящий пир крови на их телах.



Страна: Япония, США
Студия: Aniplex, IG Plus, Production I.G.
Продолжительность: 00:48:20
Перевод: Профессиональный многоголосый, авторский, любительский одноголосый

Файл
Кодек: x.264
Качество: BDRip 1080p
Видео: MPEG-4 AVC, 1920x1040, 6200 Kбит/с, 23.976 кадр/с
Аудио #1: Русский ( АС3, 6ch, 384 Кбит/с, 48.0 KHz) Профессиональный (многоголосый, закадровый) R5 | Top Industry
Аудио #2: Русский ( АС3, 6ch, 448 Кбит/с, 48.0 KHz) Авторский (одноголосый, закадровый) Андрей Гаврилов
Аудио #3: Русский ( АС3, 2ch, 224 Кбит/с, 48.0 KHz) Любительский (одноголосый, закадровый)
Аудио #4: Английский ( АС3, 6ch, 448 Кбит/с, 48.0 KHz)
Субтитры: Русские (full), английские (на японскую речь)
MediaInfo
Источник: Blood.The.Last.Vampire.BDRemux[1080p]
General
Unique ID : 227370825435964401554656981810782790341 (0xAB0E0732C9C88F35AAAE931092A1E2C5)
Complete name : Blood.The.Last.Vampire.2000.BDRip.1080p.mkv
Format : Matroska
Format version : Version 4
File size : 2.60 GiB
Duration : 48 min 19 s
Overall bit rate : 7 714 kb/s
Encoded date : UTC 2018-11-17 13:15:53
Writing application : mkvmerge v7.1.0 ('Good Love') 64bit built on Jul 27 2014 13:06:55
Writing library : libebml v1.3.0 + libmatroska v1.4.1

Video
ID : 1
Format : AVC
Format/Info : Advanced Video Codec
Format profile : High@L4.1
Format settings : CABAC / 4 Ref Frames
Format settings, CABAC : Yes
Format settings, ReFrames : 4 frames
Codec ID : V_MPEG4/ISO/AVC
Duration : 48 min 19 s
Bit rate : 6 200 kb/s
Width : 1 920 pixels
Height : 1 040 pixels
Display aspect ratio : 1.85:1
Frame rate mode : Constant
Frame rate : 23.976 (24000/1001) FPS
Color space : YUV
Chroma subsampling : 4:2:0
Bit depth : 8 bits
Scan type : Progressive
Bits/(Pixel*Frame) : 0.130
Stream size : 2.09 GiB (80%)
Writing library : x264 core 148 r2638 7599210
Encoding settings : cabac=1 / ref=4 / deblock=1:-2:-2 / analyse=0x3:0x133 / me=umh / subme=10 / psy=1 / psy_rd=1.00:0.20 / mixed_ref=1 / me_range=48 / chroma_me=1 / trellis=2 / 8x8dct=1 / cqm=0 / deadzone=21,11 / fast_pskip=1 / chroma_qp_offset=-3 / threads=6 / lookahead_threads=1 / sliced_threads=0 / nr=0 / decimate=1 / interlaced=0 / bluray_compat=0 / constrained_intra=0 / bframes=10 / b_pyramid=2 / b_adapt=2 / b_bias=0 / direct=3 / weightb=1 / open_gop=0 / weightp=2 / keyint=250 / keyint_min=23 / scenecut=40 / intra_refresh=0 / rc_lookahead=60 / rc=2pass / mbtree=1 / bitrate=6200 / ratetol=1.0 / qcomp=0.60 / qpmin=0 / qpmax=69 / qpstep=4 / cplxblur=20.0 / qblur=0.5 / ip_ratio=1.40 / aq=1:1.00
Language : English
Default : Yes
Forced : No

Audio #1
ID : 2
Format : AC-3
Format/Info : Audio Coding 3
Commercial name : Dolby Digital
Codec ID : A_AC3
Duration : 48 min 19 s
Bit rate mode : Constant
Bit rate : 384 kb/s
Channel(s) : 6 channels
Channel layout : L R C LFE Ls Rs
Sampling rate : 48.0 kHz
Frame rate : 31.250 FPS (1536 SPF)
Bit depth : 16 bits
Compression mode : Lossy
Stream size : 133 MiB (5%)
Title : R5 | Top Industry
Language : Russian
Service kind : Complete Main
Default : Yes
Forced : No

Audio #2
ID : 3
Format : AC-3
Format/Info : Audio Coding 3
Commercial name : Dolby Digital
Codec ID : A_AC3
Duration : 48 min 17 s
Bit rate mode : Constant
Bit rate : 448 kb/s
Channel(s) : 6 channels
Channel layout : L R C LFE Ls Rs
Sampling rate : 48.0 kHz
Frame rate : 31.250 FPS (1536 SPF)
Bit depth : 16 bits
Compression mode : Lossy
Stream size : 155 MiB (6%)
Title : AVO | Андрей Гаврилов
Language : Russian
Service kind : Complete Main
Default : No
Forced : No

Audio #3
ID : 4
Format : AC-3
Format/Info : Audio Coding 3
Commercial name : Dolby Digital
Codec ID : A_AC3
Duration : 48 min 16 s
Bit rate mode : Constant
Bit rate : 224 kb/s
Channel(s) : 2 channels
Channel layout : L R
Sampling rate : 48.0 kHz
Frame rate : 31.250 FPS (1536 SPF)
Bit depth : 16 bits
Compression mode : Lossy
Stream size : 77.4 MiB (3%)
Title : AVO |
Language : Russian
Service kind : Complete Main
Default : No
Forced : No

Audio #4
ID : 5
Format : AC-3
Format/Info : Audio Coding 3
Commercial name : Dolby Digital
Codec ID : A_AC3
Duration : 48 min 16 s
Bit rate mode : Constant
Bit rate : 448 kb/s
Channel(s) : 6 channels
Channel layout : L R C LFE Ls Rs
Sampling rate : 48.0 kHz
Frame rate : 31.250 FPS (1536 SPF)
Bit depth : 16 bits
Compression mode : Lossy
Stream size : 155 MiB (6%)
Language : English
Service kind : Complete Main
Default : No
Forced : No

Text #1
ID : 6
Format : UTF-8
Codec ID : S_TEXT/UTF8
Codec ID/Info : UTF-8 Plain Text
Duration : 43 min 38 s
Bit rate : 38 b/s
Count of elements : 279
Stream size : 12.4 KiB (0%)
Language : Russian
Default : No
Forced : No

Text #2
ID : 7
Format : PGS
Muxing mode : zlib
Codec ID : S_HDMV/PGS
Codec ID/Info : Picture based subtitle format used on BDs/HD-DVDs
Duration : 43 min 12 s
Bit rate : 3 849 b/s
Count of elements : 698
Stream size : 1.19 MiB (0%)
Language : Russian
Default : No
Forced : No

Text #3
ID : 8
Format : PGS
Muxing mode : zlib
Codec ID : S_HDMV/PGS
Codec ID/Info : Picture based subtitle format used on BDs/HD-DVDs
Duration : 34 min 6 s
Bit rate : 2 652 b/s
Count of elements : 184
Stream size : 663 KiB (0%)
Title : Forced
Language : English
Default : No
Forced : No

Menu
00:00:00.000 : en:Chapter 01
00:06:48.941 : en:Chapter 02
00:15:59.325 : en:Chapter 03
00:23:07.686 : en:Chapter 04
00:29:31.870 : en:Chapter 05
00:35:23.888 : en:Chapter 06
00:39:47.017 : en:Chapter 07
00:43:45.422 : en:Chapter 08
00:48:18.896 : en:Chapter 09
Скриншоты
 

Вложения

  • 14,5 KB Просмотры: 1
    Личеров 0
    Сидеров 0
    Файлов 1
    Объем 2,6 GB

Привет!

Мы группа людей которые решили помочь другим в решении их проблем, а так же пользователям с поиском самых свежих и качественных инфопродуктов. За 4 с небольшим месяца мы создали этот форум на который заходят ежедневно тысячи человек и посещаемость постоянно растёт. Мы создали панель лицензирования для защиты PHP скриптов от воровства и SEO панель для мониторинга наших сайтов и выбора верной стратегии их развития. Мы надеемся что то что мы создали пригодится Вам и возможно Вы поможете нам развиваться и совершенствоваться вместе с Вами.

Статистика форума

Темы
405.486
Сообщения
462.610
Пользователи
80.703
Новый пользователь
dariaeka

Приложения форума для iOS и Android


У ркн там нет власти ;)
Приватные разговоры
Помощь Пользователи
    Вы не присоединились ни к одной комнате.