За последнюю неделю опубликовано 86 новых материалов.
Инструкция новичку Путеводитель по форуму Прокси для Telegram Показать подсказки , это бомба!

Скачать Кровь: Последний вампир / Blood: The Last Vampire (2000) BDRip 1080p FREEISLAND бесплатно через торрент

  • Поучаствуй (в качестве покупателя) в любых пяти совместных покупках (кроме завершённых и "Моментальных") и получи группу "Новичок" навсегда -> ссылка на раздел
  • Получай до 480 рублей за каждого приглашенного пользователя!
    представляем Вам очередное расширение партнерской программы, подробности описаны тут -> ссылка
  • 90% материалов доступно к скачиванию после простой регистрации!
    Если же ты хочешь скачивать материалы без требования оставлять отзывы то получи группу "Новичок", 10 способов повышения описаны тут -> ссылка
  • К сожалению количество битых ссылок растет и мы уже не можем их оперативно восстанавливать поэтому просим помощи у каждого нашего пользователя.
    С сегодняшнего дня, за каждую восстановленную ссылку мы заплатим Вам.
    Подробнее тут -> ссылка
  • Перенесем твои заслуги с другого ресурса!
    Мы понимаем как сложно прокачивать аккаунты на форумах, вроде раскачал аккаунт, а тут появляется ресурс в 100 раз круче но тоже с системой прокачки и снова качать аккаунт...
    Предлагаем вам перенести Ваши заслуги на другом подобном ресурсе к нам.
    Подробности описаны тут -> ссылка
  • Вы можете получать по 2.5% с каждой покупки и продажи на маркете! Подробности в теме Партнёрская программа

Torrent_Bot

Торрент-Бот
Бот форума
4 Окт 2016
102
152
20
Кровь: Последний вампир
Blood: The Last Vampire



Год выпуска: 2000
Страна: Япония
Жанр: аниме, мультфильм, ужасы, боевик
Продолжительность: 48 мин.
Перевод: Профессиональный(многоголосый, закадровый) + английская дорожка


Режиссер: Хироюки Китакубо
Продюссер: Йокио Нагасаки, Митсухиса Ишикава, Мамору Осии
Сценарий: Кенджи Камияма, Катсуа Терада


Премьера в мире: 28 июля 2000


6.70 (5 092)
361d0440539e7cfae15117d226c700d8.gif


В ролях: Йоуки Кудо, Саеми Накамура, Джо Ромерса, Rebecca Forstadt, Стюарт Робинсон, Akira Koteyama, Том Чарльз, Фитц Хьюстон, Стивен Блум, Пол Карр


Описание: Америка на пороге Вьетнамской войны. На японской базе воздушных сил Екота нарастает напряжение. Но существует более великая опасность в стенах охраняемого комплекса: Вампиры!Команда сверх-секретных агентов высылает на их уничтожение загадочную юную девушку...


Доп. информация: MediaInfo
Общее
Уникальный идентификатор : 184997991448316251890300807386220184468 (0x8B2D512FF7C2033EA6517B770DFFC394)
Полное имя : I:Мои рипы на 1DVDAnimeBlood.the.last.Vampire.Digital.BDRip.AVC.1080p.mkv
Формат : Matroska
Размер файла : 2,19 Гбайт
Продолжительность : 48 м.
Общий поток : 6484 Кбит/сек
Дата кодирования : UTC 2011-02-27 09:11:12
Программа кодирования : mkvmerge v4.5.0 ('Speed of Light') built on Feb 1 2011 02:10:32
Библиотека кодирования : libebml v1.2.0 + libmatroska v1.1.0

Видео
Идентификатор : 1
Формат : AVC
Формат/Информация : Advanced Video Codec
Профиль формата : High@L4.1
Параметр CABAC формата : Да
Параметр ReFrames формата : 4 кадры
Идентификатор кодека : V_MPEG4/ISO/AVC
Продолжительность : 48 м.
Битрейт : 5712 Кбит/сек
Ширина : 1920 пикс.
Высота : 1036 пикс.
Соотношение сторон : 1,853
Частота кадров : 23,976 кадр/сек
Цветовое пространство : YUV
Подвыборка цветности : 4:2:0
Битовая глубина : 8 бит
Тип развёртки : Прогрессивная
Бит/(Пиксели*Кадры) : 0.120
Размер потока : 1,89 Гбайт (86%)
Заголовок : BDRip by FREEISLAND
Библиотека кодирования : x264 core 114 r1913 5fd3dce
Настройки программы : cabac=1 / ref=4 / deblock=1:-1:-1 / analyse=0x3:0x133 / me=hex / subme=7 / psy=1 / psy_rd=1.00:0.00 / mixed_ref=1 / me_range=16 / chroma_me=1 / trellis=2 / 8x8dct=1 / cqm=0 / deadzone=21,11 / fast_pskip=0 / chroma_qp_offset=-2 / threads=9 / sliced_threads=0 / nr=0 / decimate=1 / interlaced=0 / constrained_intra=0 / bframes=3 / b_pyramid=2 / b_adapt=1 / b_bias=0 / direct=1 / weightb=1 / open_gop=0 / weightp=2 / keyint=250 / keyint_min=23 / scenecut=40 / intra_refresh=0 / rc_lookahead=40 / rc=2pass / mbtree=1 / bitrate=5712 / ratetol=1.0 / qcomp=0.60 / qpmin=0 / qpmax=51 / qpstep=4 / cplxblur=20.0 / qblur=0.5 / ip_ratio=1.40 / aq=1:1.00
Язык : English
Основные цвета : BT.709-5, BT.1361, IEC 61966-2-4, SMPTE RP177
Характеристики трансфера : BT.709-5, BT.1361
Коэффициенты матрицы : BT.709-5, BT.1361, IEC 61966-2-4 709, SMPTE RP177

Аудио #1
Идентификатор : 2
Формат : AC-3
Формат/Информация : Audio Coding 3
Расширение режима : CM (complete main)
Идентификатор кодека : A_AC3
Продолжительность : 48 м.
Вид битрейта : Постоянный
Битрейт : 384 Кбит/сек
Канал(ы) : 6 канала(ов)
Расположение каналов : Front: L C R, Side: L R, LFE
Частота : 48,0 КГц
Битовая глубина : 16 бит
Метод сжатия : С потерями
Размер потока : 133 Мбайт (6%)
Язык : Russian

Аудио #2
Идентификатор : 3
Формат : AC-3
Формат/Информация : Audio Coding 3
Расширение режима : CM (complete main)
Идентификатор кодека : A_AC3
Продолжительность : 48 м.
Вид битрейта : Постоянный
Битрейт : 384 Кбит/сек
Канал(ы) : 6 канала(ов)
Расположение каналов : Front: L C R, Side: L R, LFE
Частота : 48,0 КГц
Битовая глубина : 16 бит
Метод сжатия : С потерями
Размер потока : 133 Мбайт (6%)
Язык : English

Текст #1
Идентификатор : 4
Формат : VobSub
Режим смешивания : zlib
Идентификатор кодека : S_VOBSUB
Идентификатор кодека/Информация : The same subtitle format used on DVDs
Язык : Russian

Текст #2
Идентификатор : 5
Формат : VobSub
Режим смешивания : zlib
Идентификатор кодека : S_VOBSUB
Идентификатор кодека/Информация : The same subtitle format used on DVDs
Язык : English

Меню
00:00:00.000 : en:Chapter 01
00:06:46.279 : en:Chapter 02
00:15:52.910 : en:Chapter 03
00:23:07.719 : en:Chapter 04
00:29:29.225 : en:Chapter 05
00:39:44.256 : en:Chapter 06


Качество: BDRip 1080p
Формат: MKV
Видео кодек: H.264
Аудио кодек: AC3
Видео: 1920 x 1036 (1.853) at 23.976 fps AVC at 5712 Кбит/сек
Аудио: AC-3 at 384 Кбит/сек 6 канала(ов), 48,0 КГц -русский
Аудио: AC-3 at 384 Кбит/сек 6 канала(ов), 48,0 КГц -английский
Субтитры: русские, английские -VobSub


Скриншоты

Релиз от:
 

Вложения

Привет!

Мы группа людей которые решили помочь другим в решении их проблем, а так же пользователям с поиском самых свежих и качественных инфопродуктов. За 4 с небольшим месяца мы создали этот форум на который заходят ежедневно тысячи человек и посещаемость постоянно растёт. Мы создали панель лицензирования для защиты PHP скриптов от воровства и SEO панель для мониторинга наших сайтов и выбора верной стратегии их развития. Мы надеемся что то что мы создали пригодится Вам и возможно Вы поможете нам развиваться и совершенствоваться вместе с Вами.

Статистика форума

Темы
404.594
Сообщения
461.479
Пользователи
80.310
Новый пользователь
rjkee

Приложения форума для iOS и Android


У ркн там нет власти ;)
Приватные разговоры
Помощь Пользователи
    Вы не присоединились ни к одной комнате.