За последнюю неделю опубликовано 57 новых материалов.
Инструкция новичку Путеводитель по форуму Прокси для Telegram Показать подсказки , это бомба!

Скачать Крокодил Данди / Crocodile Dundee (1986) BDRip-HEVC 1080p | D, P, A, L бесплатно через торрент

  • Поучаствуй (в качестве покупателя) в любых пяти совместных покупках (кроме завершённых и "Моментальных") и получи группу "Новичок" навсегда -> ссылка на раздел
  • Получай до 480 рублей за каждого приглашенного пользователя!
    представляем Вам очередное расширение партнерской программы, подробности описаны тут -> ссылка
  • 90% материалов доступно к скачиванию после простой регистрации!
    Если же ты хочешь скачивать материалы без требования оставлять отзывы то получи группу "Новичок", 10 способов повышения описаны тут -> ссылка
  • К сожалению количество битых ссылок растет и мы уже не можем их оперативно восстанавливать поэтому просим помощи у каждого нашего пользователя.
    С сегодняшнего дня, за каждую восстановленную ссылку мы заплатим Вам.
    Подробнее тут -> ссылка
  • Перенесем твои заслуги с другого ресурса!
    Мы понимаем как сложно прокачивать аккаунты на форумах, вроде раскачал аккаунт, а тут появляется ресурс в 100 раз круче но тоже с системой прокачки и снова качать аккаунт...
    Предлагаем вам перенести Ваши заслуги на другом подобном ресурсе к нам.
    Подробности описаны тут -> ссылка
  • Вы можете получать по 2.5% с каждой покупки и продажи на маркете! Подробности в теме Партнёрская программа
Если Вы не хотите скачивать, Вы всегда можетепосмотретьонлайн, просто нажмите кнопку ниже :

Открыть плеер

Torrent_Bot

Торрент-Бот
Бот форума
4 Окт 2016
92
163
20



Название: Крокодил Данди
Оригинальное название: Crocodile Dundee
Год выхода: 1986
Жанр: боевик, комедия, приключения
Режиссер: Питер Фэймен
В ролях: Пол Хоган, Линда Козловски, Джон Майллон, Дэвид Галпилил, Ричи Сингер, Мэгги Блинко, Дональд Керр, Джерри Скилтон, Терри Гилл, Питер Тернбулл

О фильме: Американская журналистка приезжает в глубинку Австралии, и охотник на крокодилов знакомит ее с местными достопримечательностями. Она же приглашает его в Нью-Йорк, и там отважный охотник попадает в неведомые ему джунгли...



Страна: Австралия
Студия: Rimfire Films, Paramount Pictures
Продолжительность: 01:37:41
Перевод: дублированный, профессиональный многоголосый, авторский одноголосый, любительский одноголосый

Качество: BDRip-HEVC 1080p
Кодек: HEVC (x265)
Видео: 1920x816 (2.35:1), 7262 Кбит/сек, HEVC ([email protected]@High) 10 бит
Звук:
Аудио1: AC3, 2 ch, 192 Kbps - русский Дублированный (киностудия им. Горького)
Аудио2: AC3, 2 ch, 192 Kbps - русский Многоголосый (DDV)
Аудио3: AC3, 2 ch, 192 Kbps - русский Многоголосый (ОРТ)
Аудио4: AC3, 2 ch, 192 Kbps - русский Многоголосый (НТВ)
Аудио5: AC3, 2 ch, 192 Kbps - русский Многоголосый (СТС)
Аудио6: AC3, 2 ch, 640 Kbps - русский Авторский (Юрий Живов)
Аудио7: AC3, 2 ch, 192 Kbps - русский Авторский (Вартан Дохалов)
Аудио8: AC3, 2 ch, 192 Kbps - русский Авторский (Сергей Кузнецов)
Аудио9: AC3, 2 ch, 640 Kbps - русский Любительский (Андрей - Ray - R7)
Аудио10: AC3, 2 ch, 640 Kbps - english Original
Субтитры: отсутствуют
Навигация по главам: Есть

Лог (x265 info)
x265 [info]: frame I: 591, Avg QP:17.98 kb/s: 23483.02
x265 [info]: frame P: 23768, Avg QP:19.35 kb/s: 17735.90
x265 [info]: frame B: 116185, Avg QP:21.04 kb/s: 5035.42
x265 [info]: Weighted P-Frames: Y:11.0% UV:8.2%
x265 [info]: Weighted B-Frames: Y:5.6% UV:3.8%
x265 [info]: consecutive B-frames: 0.8% 1.7% 3.6% 24.8% 10.9% 31.7% 6.7% 13.6% 2.7% 2.2% 0.5% 0.4% 0.1% 0.1% 0.1%
x265 [info]: encoded 140544 frames in 110330.68s (1.27 fps), 7260.83 kb/s, Avg QP:20.74
Mediainfo
Формат : Matroska
Версия формата : Version 4
Размер файла : 7,19 Гбайт
Продолжительность : 1 ч. 37 м.
Общий поток : 10,5 Мбит/сек
Название фильма : Крокодил.Данди.Crocodile.Dundee.1986.BDRip-HEVC.1080p
Дата кодирования : UTC 2020-08-28 21:21:43
Программа кодирования : mkvmerge v49.0.0 ('Sick Of Losing Soulmates') 64-bit
Библиотека кодирования : libebml v1.4.0 + libmatroska v1.6.1

Видео
Идентификатор : 1
Формат : HEVC
Формат/Информация : High Efficiency Video Coding
Профиль формата : Main [email protected]@High
Идентификатор кодека : V_MPEGH/ISO/HEVC
Продолжительность : 1 ч. 37 м.
Битрейт : 7 262 Кбит/сек
Ширина : 1 920 пикселей
Высота : 816 пикселей
Соотношение сторон : 2,35:1
Режим частоты кадров : Постоянный
Частота кадров : 23,976 (24000/1001) кадра/сек
Цветовое пространство : YUV
Субдискретизация насыщенности : 4:2:0
Битовая глубина : 10 бит
Бит/(Пиксели*Кадры) : 0.193
Размер потока : 4,96 Гбайт (69%)
Заголовок : Crocodile Dundee / Rip by OldGamer
Библиотека кодирования : x265 3.4+1-7b120308dc64:[Windows][GCC 10.1.0][64 bit] 10bit
Настройки программы : cpuid=1111039 / frame-threads=3 / numa-pools=8 / wpp / no-pmode / no-pme / no-psnr / no-ssim / log-level=2 / input-csp=1 / input-res=1920x816 / interlace=0 / total-frames=140544 / level-idc=41 / high-tier=1 / uhd-bd=0 / ref=5 / no-allow-non-conformance / no-repeat-headers / annexb / no-aud / no-hrd / info / hash=0 / no-temporal-layers / open-gop / min-keyint=23 / keyint=240 / gop-lookahead=0 / bframes=14 / b-adapt=2 / b-pyramid / bframe-bias=0 / rc-lookahead=60 / lookahead-slices=0 / scenecut=40 / hist-scenecut=0 / radl=0 / no-splice / no-intra-refresh / ctu=64 / min-cu-size=8 / rect / amp / max-tu-size=32 / tu-inter-depth=4 / tu-intra-depth=4 / limit-tu=1 / rdoq-level=2 / dynamic-rd=0.00 / no-ssim-rd / signhide / no-tskip / nr-intra=0 / nr-inter=0 / no-constrained-intra / no-strong-intra-smoothing / max-merge=5 / limit-refs=3 / no-limit-modes / me=3 / subme=7 / merange=57 / temporal-mvp / no-frame-dup / no-hme / weightp / weightb / no-analyze-src-pics / deblock=-3:-3 / no-sao / no-sao-non-deblock / rd=6 / selective-sao=0 / no-early-skip / rskip / no-fast-intra / no-tskip-fast / no-cu-lossless / b-intra / no-splitrd-skip / rdpenalty=0 / psy-rd=2.00 / psy-rdoq=1.00 / no-rd-refine / no-lossless / cbqpoffs=0 / crqpoffs=0 / rc=crf / crf=19.0 / qcomp=0.60 / qpstep=4 / stats-write=0 / stats-read=0 / vbv-maxrate=50000 / vbv-bufsize=50000 / vbv-init=0.9 / crf-max=0.0 / crf-min=0.0 / ipratio=1.40 / pbratio=1.30 / aq-mode=1 / aq-strength=0.80 / no-cutree / zone-count=1 / zones: / start-frame=135446 / end-frame=140526 / qp=36 / no-strict-cbr / qg-size=32 / no-rc-grain / qpmax=69 / qpmin=0 / no-const-vbv / sar=1 / overscan=0 / videoformat=5 / range=0 / colorprim=2 / transfer=2 / colormatrix=2 / chromaloc=0 / display-window=0 / cll=0,0 / min-luma=0 / max-luma=1023 / log2-max-poc-lsb=8 / vui-timing-info / vui-hrd-info / slices=1 / no-opt-qp-pps / no-opt-ref-list-length-pps / no-multi-pass-opt-rps / scenecut-bias=0.00 / hist-threshold=0.01 / no-opt-cu-delta-qp / no-aq-motion / no-hdr10 / no-hdr10-opt / no-dhdr10-opt / no-idr-recovery-sei / analysis-reuse-level=0 / analysis-save-reuse-level=0 / analysis-load-reuse-level=0 / scale-factor=0 / refine-intra=0 / refine-inter=0 / refine-mv=1 / refine-ctu-distortion=0 / no-limit-sao / ctu-info=0 / no-lowpass-dct / refine-analysis-type=0 / copy-pic=1 / max-ausize-factor=1.0 / no-dynamic-refine / no-single-sei / no-hevc-aq / no-svt / no-field / qp-adaptation-range=1.00 / no-scenecut-aware-qpconformance-window-offsets / right=0 / bottom=0 / decoder-max-rate=0
Язык : English
Default : Да
Forced : Нет

Аудио #1
Идентификатор : 2
ID in the original source medium : 4352 (0x1100)
Формат : AC-3
Формат/Информация : Audio Coding 3
Коммерческое название : Dolby Digital
Идентификатор кодека : A_AC3
Продолжительность : 1 ч. 37 м.
Вид битрейта : Постоянный
Битрейт : 192 Кбит/сек
Каналы : 2 канала
Channel layout : L R
Частота : 48,0 КГц
Частота кадров : 31,250 кадров/сек (1536 SPF)
Метод сжатия : С потерями
Размер потока : 134 Мбайт (2%)
Заголовок : Dub (киностудия им. Горького)
Язык : Russian
Service kind : Complete Main
Default : Да
Forced : Нет
Носитель оригинала : Blu-ray

Аудио #2
Идентификатор : 3
ID in the original source medium : 4357 (0x1105)
Формат : AC-3
Формат/Информация : Audio Coding 3
Коммерческое название : Dolby Digital
Идентификатор кодека : A_AC3
Продолжительность : 1 ч. 37 м.
Вид битрейта : Постоянный
Битрейт : 192 Кбит/сек
Каналы : 2 канала
Channel layout : L R
Частота : 48,0 КГц
Частота кадров : 31,250 кадров/сек (1536 SPF)
Метод сжатия : С потерями
Размер потока : 134 Мбайт (2%)
Заголовок : MVO (DDV)
Язык : Russian
Service kind : Complete Main
Default : Нет
Forced : Нет
Носитель оригинала : Blu-ray

Аудио #3
Идентификатор : 4
ID in the original source medium : 4359 (0x1107)
Формат : AC-3
Формат/Информация : Audio Coding 3
Коммерческое название : Dolby Digital
Идентификатор кодека : A_AC3
Продолжительность : 1 ч. 37 м.
Вид битрейта : Постоянный
Битрейт : 192 Кбит/сек
Каналы : 2 канала
Channel layout : L R
Частота : 48,0 КГц
Частота кадров : 31,250 кадров/сек (1536 SPF)
Метод сжатия : С потерями
Размер потока : 134 Мбайт (2%)
Заголовок : MVO (ОРТ)
Язык : Russian
Service kind : Complete Main
Default : Нет
Forced : Нет
Носитель оригинала : Blu-ray

Аудио #4
Идентификатор : 5
ID in the original source medium : 4358 (0x1106)
Формат : AC-3
Формат/Информация : Audio Coding 3
Коммерческое название : Dolby Digital
Идентификатор кодека : A_AC3
Продолжительность : 1 ч. 37 м.
Вид битрейта : Постоянный
Битрейт : 192 Кбит/сек
Каналы : 2 канала
Channel layout : L R
Частота : 48,0 КГц
Частота кадров : 31,250 кадров/сек (1536 SPF)
Метод сжатия : С потерями
Размер потока : 134 Мбайт (2%)
Заголовок : MVO (НТВ)
Язык : Russian
Service kind : Complete Main
Default : Нет
Forced : Нет
Носитель оригинала : Blu-ray

Аудио #5
Идентификатор : 6
ID in the original source medium : 4360 (0x1108)
Формат : AC-3
Формат/Информация : Audio Coding 3
Коммерческое название : Dolby Digital
Идентификатор кодека : A_AC3
Продолжительность : 1 ч. 37 м.
Вид битрейта : Постоянный
Битрейт : 192 Кбит/сек
Каналы : 2 канала
Channel layout : L R
Частота : 48,0 КГц
Частота кадров : 31,250 кадров/сек (1536 SPF)
Метод сжатия : С потерями
Размер потока : 134 Мбайт (2%)
Заголовок : MVO (СТС)
Язык : Russian
Service kind : Complete Main
Default : Нет
Forced : Нет
Носитель оригинала : Blu-ray

Аудио #6
Идентификатор : 7
Формат : AC-3
Формат/Информация : Audio Coding 3
Коммерческое название : Dolby Digital
Идентификатор кодека : A_AC3
Продолжительность : 1 ч. 37 м.
Вид битрейта : Постоянный
Битрейт : 640 Кбит/сек
Каналы : 2 канала
Channel layout : L R
Частота : 48,0 КГц
Частота кадров : 31,250 кадров/сек (1536 SPF)
Метод сжатия : С потерями
Размер потока : 447 Мбайт (6%)
Заголовок : AVO (Юрий Живов)
Язык : Russian
Service kind : Complete Main
Default : Нет
Forced : Нет

Аудио #7
Идентификатор : 8
ID in the original source medium : 4355 (0x1103)
Формат : AC-3
Формат/Информация : Audio Coding 3
Коммерческое название : Dolby Digital
Идентификатор кодека : A_AC3
Продолжительность : 1 ч. 37 м.
Вид битрейта : Постоянный
Битрейт : 192 Кбит/сек
Каналы : 2 канала
Channel layout : L R
Частота : 48,0 КГц
Частота кадров : 31,250 кадров/сек (1536 SPF)
Метод сжатия : С потерями
Размер потока : 134 Мбайт (2%)
Заголовок : AVO (Вартан Дохалов)
Язык : Russian
Service kind : Complete Main
Default : Нет
Forced : Нет
Носитель оригинала : Blu-ray

Аудио #8
Идентификатор : 9
ID in the original source medium : 4356 (0x1104)
Формат : AC-3
Формат/Информация : Audio Coding 3
Коммерческое название : Dolby Digital
Идентификатор кодека : A_AC3
Продолжительность : 1 ч. 37 м.
Вид битрейта : Постоянный
Битрейт : 192 Кбит/сек
Каналы : 2 канала
Channel layout : L R
Частота : 48,0 КГц
Частота кадров : 31,250 кадров/сек (1536 SPF)
Метод сжатия : С потерями
Размер потока : 134 Мбайт (2%)
Заголовок : AVO (Сергей Кузнецов)
Язык : Russian
Service kind : Complete Main
Default : Нет
Forced : Нет
Носитель оригинала : Blu-ray

Аудио #9
Идентификатор : 10
Формат : AC-3
Формат/Информация : Audio Coding 3
Коммерческое название : Dolby Digital
Идентификатор кодека : A_AC3
Продолжительность : 1 ч. 37 м.
Вид битрейта : Постоянный
Битрейт : 640 Кбит/сек
Каналы : 2 канала
Channel layout : L R
Частота : 48,0 КГц
Частота кадров : 31,250 кадров/сек (1536 SPF)
Метод сжатия : С потерями
Размер потока : 447 Мбайт (6%)
Заголовок : VO (Андрей - Ray - R7)
Язык : Russian
Service kind : Complete Main
Default : Нет
Forced : Нет

Аудио #10
Идентификатор : 11
Формат : AC-3
Формат/Информация : Audio Coding 3
Коммерческое название : Dolby Digital
Идентификатор кодека : A_AC3
Продолжительность : 1 ч. 37 м.
Вид битрейта : Постоянный
Битрейт : 640 Кбит/сек
Каналы : 2 канала
Channel layout : L R
Частота : 48,0 КГц
Частота кадров : 31,250 кадров/сек (1536 SPF)
Метод сжатия : С потерями
Размер потока : 447 Мбайт (6%)
Язык : English
Service kind : Complete Main
Default : Нет
Forced : Нет

Меню
00:00:00.000 : en:Chapter 01
00:07:18.604 : en:Chapter 02
00:13:53.582 : en:Chapter 03
00:20:16.131 : en:Chapter 04
00:29:51.956 : en:Chapter 05
00:33:00.770 : en:Chapter 06
00:40:05.444 : en:Chapter 07
00:50:57.471 : en:Chapter 08
00:53:27.746 : en:Chapter 09
00:57:39.497 : en:Chapter 10
01:04:50.636 : en:Chapter 11
01:11:16.230 : en:Chapter 12
01:14:12.531 : en:Chapter 13
01:23:52.652 : en:Chapter 14
01:31:08.796 : en:Chapter 15
01:34:10.311 : en:Chapter 16
Скриншоты


Релиз от: OldGamer
 

Вложения

  • 36,9 KB Просмотры: 0
    Личеров 0
    Сидеров 0
    Файлов 1
    Объем 7,2 GB

Привет!

Мы группа людей которые решили помочь другим в решении их проблем, а так же пользователям с поиском самых свежих и качественных инфопродуктов. За 4 с небольшим месяца мы создали этот форум на который заходят ежедневно тысячи человек и посещаемость постоянно растёт. Мы создали панель лицензирования для защиты PHP скриптов от воровства и SEO панель для мониторинга наших сайтов и выбора верной стратегии их развития. Мы надеемся что то что мы создали пригодится Вам и возможно Вы поможете нам развиваться и совершенствоваться вместе с Вами.

Статистика форума

Темы
406.698
Сообщения
465.160
Пользователи
84.776
Новый пользователь
keks38

Приложения форума для iOS и Android


У ркн там нет власти ;)
Приватные разговоры
Помощь Пользователи
    Вы не присоединились ни к одной комнате.