За последнюю неделю опубликовано 25 новых материалов.
Инструкция новичку Путеводитель по форуму Прокси для Telegram Показать подсказки , это бомба!

Скачать Кривая линия / Curve (2015) BDRip 720p | D, L1 бесплатно через торрент

  • Поучаствуй (в качестве покупателя) в любых пяти совместных покупках (кроме завершённых и "Моментальных") и получи группу "Новичок" навсегда -> ссылка на раздел
  • Получай до 480 рублей за каждого приглашенного пользователя!
    представляем Вам очередное расширение партнерской программы, подробности описаны тут -> ссылка
  • 90% материалов доступно к скачиванию после простой регистрации!
    Если же ты хочешь скачивать материалы без требования оставлять отзывы то получи группу "Новичок", 10 способов повышения описаны тут -> ссылка
  • К сожалению количество битых ссылок растет и мы уже не можем их оперативно восстанавливать поэтому просим помощи у каждого нашего пользователя.
    С сегодняшнего дня, за каждую восстановленную ссылку мы заплатим Вам.
    Подробнее тут -> ссылка
  • Перенесем твои заслуги с другого ресурса!
    Мы понимаем как сложно прокачивать аккаунты на форумах, вроде раскачал аккаунт, а тут появляется ресурс в 100 раз круче но тоже с системой прокачки и снова качать аккаунт...
    Предлагаем вам перенести Ваши заслуги на другом подобном ресурсе к нам.
    Подробности описаны тут -> ссылка
  • Вы можете получать по 2.5% с каждой покупки и продажи на маркете! Подробности в теме Партнёрская программа
Если Вы не хотите скачивать, Вы всегда можетепосмотретьонлайн, просто нажмите кнопку ниже :

Открыть плеер

Torrent_Bot

Торрент-Бот
Бот форума
4 Окт 2016
96
155
20


Информация о фильме
Название: Кривая линия
Оригинальное название: Curve
Год выхода: 2015
Жанр: ужасы, триллер
Режиссер: Иэн Софтли
В ролях: Джулианна Хаф, Тедди Сирс, Курт Брайант, Мэдалин Хорчер, Дрю Рауш

О фильме:
Через две недели, Мэллори ожидает свадьба с ее женихом, Брэдом. А пока ей нужно перегнать его машину из Сан-Франциско в Денвер. Дорога длинная, да и к тому же ее одолевают сомнения насчет будущего брака и она решает развлечь себя, съехав с шоссе, чтобы проделать часть пути через живописный каньон. Наслаждение красотами пейзажа прерывает заглохший мотор машины. Все попытки самостоятельно вернуть двигатель к жизни завершаются неудачно. На помощь приходит оказавшийся рядом автостопщик Кристиан ...



Выпущено: США, Blumhouse Productions, LBI Entertainment, Ombra Films, Universal Pictures
Продолжительность: 01:25:25
Перевод: Дублированный + Любительский (одноголосый, закадровый) Алексей Толмачев
Субтитры: Русские (Full), Английские (Full, SDH)

Файл
Формат: MKV
Качество: BDRip 720p [Curve.2015.BDRemux.1080p.NovaLan]
Видео: AVC/x264 CRF 18.0, [email protected], 1280x544, ~3457 Kbps
Аудио 1: AC3, 2 ch, 384 Kbps, 48.0 kHz – Русский Dub, студия “Пифагор»
Аудио 2: AC3, 2 ch, 192 Kbps, 48.0 kHz – Русский VO, А. Толмачев
Аудио 3: AC3, 6 ch, 640 Kbps, 48.0 kHz – Английский, оригинал

***Релиз от: -=DoMiNo=-

M/I+x264 info:
x264 info: frame I:845 Avg QP:13.74 size: 84047
x264 info: frame P:26060 Avg QP:14.66 size: 36117
x264 info: frame B:95975 Avg QP:16.91 size: 12527
x264 info: consecutive B-frames: 2.6% 2.4% 6.2% 16.8% 17.7% 36.7% 7.1% 5.8% 1.9% 0.8% 0.6% 0.7% 0.6%

General
Unique ID : 1337975902867097310963166320785908589 (0x101AF4E1C42CBBA441465F5EAC8636D)
Complete name : G:Видео_1Кривая линия _2015_BluRay-720p.x264_2xRUS, ENG_[-=DoMiNo=-].mkv
Format : Matroska
Format version : Version 4
File size : 2.79 GiB
Duration : 1 h 25 min
Overall bit rate : 4 673 kb/s
Movie name : Кривая линия
Deion : Через две недели, Мэллори (Джулианна Хаф) ожидает свадьба с ее женихом, Брэдом. А пока ей нужно перегнать его машину из Сан-Франциско в Денвер. Дорога длинная, да и к тому же ее одолевают сомнения насчет будущего брака и она решает развлечь себя, съехав с шоссе, чтобы проделать часть пути через живописный каньон. Наслаждение красотами пейзажа прерывает заглохший мотор машины. Все попытки самостоятельно вернуть двигатель к жизни завершаются неудачно. На помощь приходит оказавшийся рядом автостопщик Кристиан (Тедди Сирс)...
Encoded date : UTC 2018-09-09 04:59:04
Writing application : mkvmerge v25.0.0 ('Prog Noir') 64-bit
Writing library : libebml v1.3.6 + libmatroska v1.4.9 / Lavf57.71.100
Attachments : poster.jpg
ACTORS : Julianne Hough, Teddy Sears, Madalyn Horcher, Drew Rausch, Penelope Mitchell, Kurt Bryant
COUNTRY : United States
DATE : 2015-08-31
DIRECTOR : Iain Softley
ENCODING_INFO : BluRay > MKV 720p / H264 > X264 CRF 18.0 Пользовательский_CRF / AC3 > COPY Безопасное
GENRE : ужасы, триллер
HD_VIDEO : 1
ITUNEXTC : mpaa|R|400|
Language : und
MEDIA_TYPE : 9
ORIGINAL_TITLE : Curve
PRODUCER : Jason Blum, Jaume Collet-Serra, Juan Sola, Julie Yorn
PUBLISHER : Universal Pictures, Blumhouse Productions, LBI Entertainment, Ombra Films
RATING : 5.72

Video
ID : 1
Format : AVC
Format/Info : Advanced Video Codec
Format profile : [email protected]
Format settings : CABAC / 12 Ref Frames
Format settings, CABAC : Yes
Format settings, ReFrames : 12 frames
Codec ID : V_MPEG4/ISO/AVC
Duration : 1 h 25 min
Bit rate : 3 457 kb/s
Width : 1 280 pixels
Height : 544 pixels
Display aspect ratio : 2.35:1
Frame rate mode : Constant
Frame rate : 23.976 (24000/1001) FPS
Color space : YUV
Chroma subsampling : 4:2:0
Bit depth : 8 bits
Scan type : Progressive
Bits/(Pixel*Frame) : 0.207
Stream size : 2.06 GiB (74%)
Title : RIP_BY_-=DoMiNo=-
Writing library : x264 core 155 r2901M 7d0ff22
Encoding settings : cabac=1 / ref=12 / deblock=1:-3:-3 / analyse=0x3:0x133 / me=umh / subme=11 / psy=1 / psy_rd=1.00:0.10 / mixed_ref=1 / me_range=32 / chroma_me=1 / trellis=2 / 8x8dct=1 / cqm=0 / deadzone=21,11 / fast_pskip=1 / chroma_qp_offset=-3 / threads=6 / lookahead_threads=1 / sliced_threads=0 / nr=0 / decimate=1 / interlaced=0 / bluray_compat=0 / constrained_intra=0 / bframes=12 / b_pyramid=2 / b_adapt=2 / b_bias=0 / direct=3 / weightb=1 / open_gop=0 / weightp=2 / keyint=240 / keyint_min=24 / scenecut=40 / intra_refresh=0 / rc=crf / mbtree=0 / crf=18.0 / qcomp=0.60 / qpmin=0 / qpmax=69 / qpstep=4 / ip_ratio=1.40 / pb_ratio=1.30 / aq=1:1.00
Default : Yes
Forced : No
Color range : Limited
Color primaries : BT.709
Transfer characteristics : BT.709
Matrix coefficients : BT.709

Audio #1
ID : 2
Format : AC-3
Format/Info : Audio Coding 3
Commercial name : Dolby Digital
Codec ID : A_AC3
Duration : 1 h 25 min
Bit rate mode : Constant
Bit rate : 384 kb/s
Channel(s) : 2 channels
Channel layout : L R
Sampling rate : 48.0 kHz
Frame rate : 31.250 FPS (1536 SPF)
Bit depth : 16 bits
Compression mode : Lossy
Stream size : 235 MiB (8%)
Title : DUB_[Студия “Пифагор»]
Language : Russian
Service kind : Complete Main
Default : Yes
Forced : No

Audio #2
ID : 3
Format : AC-3
Format/Info : Audio Coding 3
Commercial name : Dolby Digital
Codec ID : A_AC3
Duration : 1 h 25 min
Bit rate mode : Constant
Bit rate : 192 kb/s
Channel(s) : 2 channels
Channel layout : L R
Sampling rate : 48.0 kHz
Frame rate : 31.250 FPS (1536 SPF)
Bit depth : 16 bits
Compression mode : Lossy
Stream size : 117 MiB (4%)
Title : Одноголосый закадровый, А. Толмачев
Language : Russian
Service kind : Complete Main
Default : No
Forced : No

Audio #3
ID : 4
Format : AC-3
Format/Info : Audio Coding 3
Commercial name : Dolby Digital
Codec ID : A_AC3
Duration : 1 h 25 min
Bit rate mode : Constant
Bit rate : 640 kb/s
Channel(s) : 6 channels
Channel layout : L R C LFE Ls Rs
Sampling rate : 48.0 kHz
Frame rate : 31.250 FPS (1536 SPF)
Bit depth : 16 bits
Compression mode : Lossy
Stream size : 391 MiB (14%)
Title : ENG
Language : English
Service kind : Complete Main
Default : No
Forced : No

Text #1
ID : 5
Format : UTF-8
Codec ID : S_TEXT/UTF8
Codec ID/Info : UTF-8 Plain Text
Duration : 1 h 17 min
Bit rate : 44 b/s
Count of elements : 606
Stream size : 25.3 KiB (0%)
Title : RUS_Full
Language : Russian
Default : No
Forced : No

Text #2
ID : 6
Format : UTF-8
Codec ID : S_TEXT/UTF8
Codec ID/Info : UTF-8 Plain Text
Duration : 1 h 17 min
Bit rate : 29 b/s
Count of elements : 546
Stream size : 16.5 KiB (0%)
Title : ENG_Full
Language : English
Default : No
Forced : No

Text #3
ID : 7
Format : UTF-8
Codec ID : S_TEXT/UTF8
Codec ID/Info : UTF-8 Plain Text
Duration : 1 h 19 min
Bit rate : 35 b/s
Count of elements : 752
Stream size : 20.8 KiB (0%)
Title : ENG_SDH
Language : English
Default : No
Forced : No

Menu
00:00:00.000 : :Глава 1
00:05:22.529 : :Глава 2
00:10:26.833 : :Глава 3
00:15:51.951 : :Глава 4
00:20:00.199 : :Глава 5
00:25:14.346 : :Глава 6
00:29:44.407 : :Глава 7
00:36:05.788 : :Глава 8
00:40:17.414 : :Глава 9
00:44:40.511 : :Глава 10
00:47:50.701 : :Глава 11
00:52:21.555 : :Глава 12
00:55:21.526 : :Глава 13
00:59:15.385 : :Глава 14
01:03:20.630 : :Глава 15
01:07:50.274 : :Глава 16
01:10:56.669 : :Глава 17
01:14:07.651 : :Глава 18
01:17:16.048 : :Глава 19
01:20:57.853 : :Глава 20
01:25:25.119 : :Глава 21
Скриншоты
 

Вложения

  • 15 KB Просмотры: 1
    Личеров 0
    Сидеров 0
    Файлов 1
    Объем 2,8 GB

Привет!

Мы группа людей которые решили помочь другим в решении их проблем, а так же пользователям с поиском самых свежих и качественных инфопродуктов. За 4 с небольшим месяца мы создали этот форум на который заходят ежедневно тысячи человек и посещаемость постоянно растёт. Мы создали панель лицензирования для защиты PHP скриптов от воровства и SEO панель для мониторинга наших сайтов и выбора верной стратегии их развития. Мы надеемся что то что мы создали пригодится Вам и возможно Вы поможете нам развиваться и совершенствоваться вместе с Вами.

Статистика форума

Темы
406.518
Сообщения
464.550
Пользователи
82.839
Новый пользователь
Akropolis

Приложения форума для iOS и Android


У ркн там нет власти ;)
Приватные разговоры
Помощь Пользователи
    Вы не присоединились ни к одной комнате.