За последнюю неделю опубликовано 96 новых материалов.
Инструкция новичку Путеводитель по форуму Прокси для Telegram Показать подсказки , это бомба!

Скачать Кристина / Christine (1983) HDRip-AVC от ExKinoRay | Р бесплатно через торрент

  • Поучаствуй (в качестве покупателя) в любых пяти совместных покупках (кроме завершённых и "Моментальных") и получи группу "Новичок" навсегда -> ссылка на раздел
  • Получай до 480 рублей за каждого приглашенного пользователя!
    представляем Вам очередное расширение партнерской программы, подробности описаны тут -> ссылка
  • 90% материалов доступно к скачиванию после простой регистрации!
    Если же ты хочешь скачивать материалы без требования оставлять отзывы то получи группу "Новичок", 10 способов повышения описаны тут -> ссылка
  • К сожалению количество битых ссылок растет и мы уже не можем их оперативно восстанавливать поэтому просим помощи у каждого нашего пользователя.
    С сегодняшнего дня, за каждую восстановленную ссылку мы заплатим Вам.
    Подробнее тут -> ссылка
  • Перенесем твои заслуги с другого ресурса!
    Мы понимаем как сложно прокачивать аккаунты на форумах, вроде раскачал аккаунт, а тут появляется ресурс в 100 раз круче но тоже с системой прокачки и снова качать аккаунт...
    Предлагаем вам перенести Ваши заслуги на другом подобном ресурсе к нам.
    Подробности описаны тут -> ссылка
  • Вы можете получать по 2.5% с каждой покупки и продажи на маркете! Подробности в теме Партнёрская программа
Если Вы не хотите скачивать, Вы всегда можетепосмотретьонлайн, просто нажмите кнопку ниже :

Открыть плеер

Torrent_Bot

Торрент-Бот
Бот форума
4 Окт 2016
102
153
20

Информация о фильме:
Название: Кристина
Оригинальное название: Christine
Год выхода: 1983
Жанр: Ужасы, триллер, драма, детектив
Режиссер: Джон Карпентер
В ролях: Кит Гордон, Джон Стокуэлл, Александра Пол, Роберт Проски, Гарри Дин Стэнтон, Кристин Белфорд, Робертс Блоссом, Уильям Острандер, Дэвид Спилберг, Мальколм Дэнар

О фильме :
Ее зовут Кристина. Ее классические формы вызывают восхищение. Она соблазняет 17-летнего Арни Каннингэма и делает его своим слугой. У нее нет и не может быть соперниц, ибо она их убивает. Она требует беспрекословного подчинения. Она... автомобиль! Чтобы сохранить свою жизнь, юноша должен посвятить ее жестокой Кристине. История роскошного красного Плимута 1958 года полна страшных тайн. Все его предыдущие хозяева погибли. И юный Ромео должен стать очередной жертвой ненасытной Джульетты.



Страна: США
Студия: Columbia Pictures Corporation, Delphi Premier Productions, Polar Film
Продолжительность: 01:50:00
Перевод: Профессиональный (многоголосый, закадровый) «Видеосервис», «Киномания»

Файл
Формат: MKV
Качество: HDRip-AVC
Видео: MPEG-4 AVC, 768x320, ~ 794 Кбит/с
Аудио #1: AAC-HE, 2 ch, ~ 76 Кбит/с | MVO, «Видеосервис»
Аудио #2: AAC-HE, 2 ch, ~ 76 Кбит/с | MVO, «Киномания»
Субтитры: Русские, английские

MI
Общее
Уникальный идентификатор : 201096472616949757939635613760250098683 (0x9749C596CE45A832973A151549FAB3FB)
Полное имя : D:MOVIESChristine.1983.HDRip-AVC.ExKinoRay.mkv
Формат : Matroska
Версия формата : Version 4 / Version 2
Размер файла : 746 Мбайт
Продолжительность : 1 ч. 49 м.
Общий поток : 948 Кбит/сек
Дата кодирования : UTC 2018-09-01 18:33:44
Программа кодирования : mkvmerge v15.0.0 ('Duel with the Devil') 64-bit
Библиотека кодирования : libebml v1.3.5 + libmatroska v1.4.5

Видео
Идентификатор : 1
Формат : AVC
Формат/Информация : Advanced Video Codec
Профиль формата : High@L4.1
Параметр CABAC формата : Да
Параметр RefFrames формата : 12 кадров
Идентификатор кодека : V_MPEG4/ISO/AVC
Продолжительность : 1 ч. 49 м.
Битрейт : 794 Кбит/сек
Ширина : 768 пикселей
Высота : 320 пикселей
Соотношение сторон : 2,40:1
Режим частоты кадров : Постоянный
Частота кадров : 23,976 (24000/1001) кадра/сек
Цветовое пространство : YUV
Субдискретизация насыщенности : 4:2:0
Битовая глубина : 8 бит
Тип развёртки : Прогрессивная
Бит/(Пиксели*Кадры) : 0.135
Размер потока : 624 Мбайт (84%)
Библиотека кодирования : x264 core 152 r2851kMod ba24899
Настройки программы : cabac=1 / ref=12 / deblock=1:-3:-3 / analyse=0x3:0x133 / me=umh / subme=10 / psy=1 / fade_compensate=0.00 / psy_rd=1.00:0.15 / mixed_ref=1 / me_range=32 / chroma_me=1 / trellis=2 / 8x8dct=1 / cqm=0 / deadzone=21,11 / fast_pskip=0 / chroma_qp_offset=-3 / threads=6 / lookahead_threads=1 / sliced_threads=0 / nr=0 / decimate=0 / interlaced=0 / bluray_compat=0 / constrained_intra=0 / bframes=11 / b_pyramid=2 / b_adapt=2 / b_bias=0 / direct=3 / weightb=1 / open_gop=0 / weightp=2 / keyint=240 / keyint_min=23 / scenecut=40 / intra_refresh=0 / rc_lookahead=40 / rc=2pass / mbtree=1 / bitrate=794 / ratetol=1.0 / qcomp=0.60 / qpmin=0 / qpmax=69 / qpstep=4 / cplxblur=20.0 / qblur=0.5 / ip_ratio=1.40 / aq=3:1.00
Default : Да
Forced : Нет

Аудио #1
Идентификатор : 2
Формат : AAC
Формат/Информация : Advanced Audio Codec
Профиль формата : HE-AAC / LC
Идентификатор кодека : A_AAC
Продолжительность : 1 ч. 49 м.
Битрейт : 76,0 Кбит/сек
Каналы : 2 канала
Расположение каналов : Front: L R
Частота : 48,0 КГц / 24,0 КГц
Частота кадров : 23,438 кадра/сек (1024 SPF)
Метод сжатия : С потерями
Задержка видео : 31 мс.
Размер потока : 59,8 Мбайт (8%)
Язык : Russian
Default : Да
Forced : Нет

Аудио #2
Идентификатор : 3
Формат : AAC
Формат/Информация : Advanced Audio Codec
Профиль формата : HE-AAC / LC
Идентификатор кодека : A_AAC
Продолжительность : 1 ч. 49 м.
Битрейт : 76,0 Кбит/сек
Каналы : 2 канала
Расположение каналов : Front: L R
Частота : 48,0 КГц / 24,0 КГц
Частота кадров : 23,438 кадра/сек (1024 SPF)
Метод сжатия : С потерями
Задержка видео : 31 мс.
Размер потока : 59,8 Мбайт (8%)
Язык : Russian
Default : Нет
Forced : Нет

Текст #1
Идентификатор : 4
Формат : UTF-8
Идентификатор кодека : S_TEXT/UTF8
Идентификатор кодека/Информация : UTF-8 Plain Text
Продолжительность : 1 ч. 42 м.
Битрейт : 62 бит/сек
ElementCount : 840
Размер потока : 46,5 Кбайт (0%)
Заголовок : Киномания
Язык : Russian
Default : Нет
Forced : Нет

Текст #2
Идентификатор : 5
Формат : UTF-8
Идентификатор кодека : S_TEXT/UTF8
Идентификатор кодека/Информация : UTF-8 Plain Text
Продолжительность : 1 ч. 44 м.
Битрейт : 36 бит/сек
ElementCount : 870
Размер потока : 27,9 Кбайт (0%)
Язык : English
Default : Нет
Forced : Нет

Меню
00:00:00.000 : :Start
00:01:34.000 : :Detroit 1957
00:05:02.000 : :Arnie Cunningham
00:09:22.000 : :The New Girl
00:10:26.000 : :Arnie's Lunch
00:15:58.000 : :Christine
00:17:11.000 : :George LeBay
00:21:56.000 : :Darnell's Garage
00:27:33.000 : :October 9
00:34:02.000 : :Change in Arnie
00:36:11.000 : :Lost Owner's Fate
00:37:42.000 : :Keep A-Knockin'
00:39:04.000 : :The Game
00:41:56.000 : :November 5
00:47:57.000 : :All Choked Up
00:53:50.000 : :Revenge of the Punks
00:55:11.000 : :Trashed
00:59:13.000 : :"O.K. show Me."
01:01:33.000 : :Moochie
01:05:56.000 : :November 23
01:07:54.000 : :Rudolph Junkins
01:12:49.000 : :One Hot Car
01:17:59.000 : :"The ride is over."
01:22:30.000 : :Arnie's Alibi
01:27:39.000 : :True Love
01:36:52.000 : :Christine Arrives
01:40:09.000 : :Arnie's Last Stand
01:42:01.000 : :Bulldozer vs. Plymouth
Скриншоты
 

Вложения

  • 15,6 KB Просмотры: 1
    Личеров 0
    Сидеров 0
    Файлов 1
    Объем 745,6 MB

Привет!

Мы группа людей которые решили помочь другим в решении их проблем, а так же пользователям с поиском самых свежих и качественных инфопродуктов. За 4 с небольшим месяца мы создали этот форум на который заходят ежедневно тысячи человек и посещаемость постоянно растёт. Мы создали панель лицензирования для защиты PHP скриптов от воровства и SEO панель для мониторинга наших сайтов и выбора верной стратегии их развития. Мы надеемся что то что мы создали пригодится Вам и возможно Вы поможете нам развиваться и совершенствоваться вместе с Вами.

Статистика форума

Темы
404.608
Сообщения
461.507
Пользователи
80.353
Новый пользователь
katnenka

Приложения форума для iOS и Android


У ркн там нет власти ;)
Приватные разговоры
Помощь Пользователи
    Вы не присоединились ни к одной комнате.