За последнюю неделю опубликовано 64 новых материалов.
Инструкция новичку Путеводитель по форуму Прокси для Telegram Показать подсказки , это бомба!

Скачать Крепость (1978) DVDRip-AVC от KORSAR бесплатно через торрент

  • Поучаствуй (в качестве покупателя) в любых пяти совместных покупках (кроме завершённых и "Моментальных") и получи группу "Новичок" навсегда -> ссылка на раздел
  • Получай до 480 рублей за каждого приглашенного пользователя!
    представляем Вам очередное расширение партнерской программы, подробности описаны тут -> ссылка
  • 90% материалов доступно к скачиванию после простой регистрации!
    Если же ты хочешь скачивать материалы без требования оставлять отзывы то получи группу "Новичок", 10 способов повышения описаны тут -> ссылка
  • К сожалению количество битых ссылок растет и мы уже не можем их оперативно восстанавливать поэтому просим помощи у каждого нашего пользователя.
    С сегодняшнего дня, за каждую восстановленную ссылку мы заплатим Вам.
    Подробнее тут -> ссылка
  • Перенесем твои заслуги с другого ресурса!
    Мы понимаем как сложно прокачивать аккаунты на форумах, вроде раскачал аккаунт, а тут появляется ресурс в 100 раз круче но тоже с системой прокачки и снова качать аккаунт...
    Предлагаем вам перенести Ваши заслуги на другом подобном ресурсе к нам.
    Подробности описаны тут -> ссылка
  • Вы можете получать по 2.5% с каждой покупки и продажи на маркете! Подробности в теме Партнёрская программа
Если Вы не хотите скачивать, Вы всегда можетепосмотретьонлайн, просто нажмите кнопку ниже :

Открыть плеер

Torrent_Bot

Торрент-Бот
Бот форума
4 Окт 2016
92
160
20


Информация о фильме
Название: Крепость
Год выхода: 1978
Жанр:Боевик, драма, военный
Режиссер: Василий Паскару
В ролях: Эммануил Виторган, Альгимантас Масюлис, Константин Константинов (I), Ион Сандри Шкуря, Валериу Купча, Паул Буткевич, Улдис Лиелдидж, Петр Баракчи, Всеволод Гаврилов, Владимир Мсрян, Арнис Лицитис, Ирен Азер, Евгений Герасимов, А. Бойко, Юрий Кузьменко, Тайрон Дэвис, Владимир Шалако, Михаил Миликов, Серджиу Финити, Вячеслав Кутаков

О фильме: Идёт последний год Второй Мировой войны. Подразделению десантников под командованием подполковника Калитина поручено проведение секретного спецзадания по освобождению европейских учёных, удерживаемых в неприступной крепости на острове в Адриатическом море.

Выпущено: СССР, Молдова Фильм, ТО «Арта»
Продолжительность: 01:28:39
Перевод: не требуется

Файл
Кодек: х264
Качество: DVDRip-AVC
Видео: MPEG-4 AVC, [email protected], 25 fps, 2461 Кбит/с
Звук: AC3, 2 ch, 256 Кбит/с

Скриншоты
Инфо файл
x264 [info]: frame I:771 Avg QP:17.35 size: 44754
x264 [info]: frame P:28066 Avg QP:18.83 size: 25463
x264 [info]: frame B:104159 Avg QP:20.71 size: 8863
=====================================================
Общее
Уникальный идентификатор : 245567482239637212031265103716144629667 (0xB8BE93A55187DA7A95EB52B3340BC7A3)
Полное имя : D:Ф А Й Л ЫКрепость (1978) DVDRip-AVC. KORSAR.mkv
Формат : Matroska
Версия формата : Version 2
Размер файла : 1,72 Гбайт
Продолжительность : 1 ч. 28 м.
Общий поток : 2773 Кбит/сек
Дата кодирования : UTC 2020-05-10 06:41:02
Программа кодирования : mkvmerge v7.8.0 ('River Man') 32bit built on Apr 3 2015 12:11:22
Библиотека кодирования : libebml v1.3.1 + libmatroska v1.4.2

Видео
Идентификатор : 1
Формат : AVC
Формат/Информация : Advanced Video Codec
Профиль формата : [email protected]
Параметр CABAC формата : Да
Параметр ReFrames формата : 16 кадров
Идентификатор кодека : V_MPEG4/ISO/AVC
Продолжительность : 1 ч. 28 м.
Битрейт : 2461 Кбит/сек
Ширина : 692 пикселя
Высота : 344 пикселя
Соотношение сторон : 2,145
Соотношение сторон в оригинале : 2,146
Режим частоты кадров : Постоянный
Частота кадров : 25,000 кадров/сек
Цветовое пространство : YUV
Субдискретизация насыщенности : 4:2:0
Битовая глубина : 8 бит
Тип развёртки : Прогрессивная
Бит/(Пиксели*Кадры) : 0.414
Размер потока : 1,52 Гбайт (89%)
Библиотека кодирования : x264 core 148 r2744kMod b97ae06
Настройки программы : cabac=1 / ref=16 / deblock=1:-2:-2 / analyse=0x3:0x133 / me=umh / subme=10 / psy=1 / fade_compensate=0.00 / psy_rd=1.05:0.10 / mixed_ref=1 / me_range=32 / chroma_me=1 / trellis=2 / 8x8dct=1 / cqm=0 / deadzone=21,11 / fast_pskip=1 / chroma_qp_offset=-3 / threads=6 / lookahead_threads=1 / sliced_threads=0 / nr=0 / decimate=1 / interlaced=0 / bluray_compat=0 / constrained_intra=0 / bframes=10 / b_pyramid=2 / b_adapt=2 / b_bias=0 / direct=1 / weightb=1 / open_gop=0 / weightp=2 / keyint=250 / keyint_min=25 / scenecut=40 / intra_refresh=0 / rc=crf / mbtree=0 / crf=17.2000 / qcomp=0.63 / qpmin=0 / qpmax=39 / qpstep=4 / ip_ratio=1.40 / pb_ratio=1.30 / aq=1:1.00
Язык : Russian
Default : Да
Forced : Нет
Цветовой диапазон : Limited
Основные цвета : BT.601 PAL
Характеристики трансфера : BT.470 System B, BT.470 System G
Коэффициенты матрицы : BT.601

Аудио
Идентификатор : 2
Формат : AC-3
Формат/Информация : Audio Coding 3
Параметр Endianness формата : Big
Идентификатор кодека : A_AC3
Продолжительность : 1 ч. 28 м.
Вид битрейта : Постоянный
Битрейт : 256 Кбит/сек
Каналы : 2 канала
Расположение каналов : Front: L R
Частота : 48,0 КГц
Частота кадров : 31,250 кадров/сек (1536 spf)
Битовая глубина : 16 бит
Метод сжатия : С потерями
Размер потока : 162 Мбайт (9%)
Язык : Russian
Default : Да
Forced : Нет

Релиз от:
 

Вложения

  • 18,1 KB Просмотры: 0
    Личеров 0
    Сидеров 0
    Файлов 1
    Объем 1,7 GB

Привет!

Мы группа людей которые решили помочь другим в решении их проблем, а так же пользователям с поиском самых свежих и качественных инфопродуктов. За 4 с небольшим месяца мы создали этот форум на который заходят ежедневно тысячи человек и посещаемость постоянно растёт. Мы создали панель лицензирования для защиты PHP скриптов от воровства и SEO панель для мониторинга наших сайтов и выбора верной стратегии их развития. Мы надеемся что то что мы создали пригодится Вам и возможно Вы поможете нам развиваться и совершенствоваться вместе с Вами.

Статистика форума

Темы
406.657
Сообщения
465.102
Пользователи
84.681
Новый пользователь
natalymak

Приложения форума для iOS и Android


У ркн там нет власти ;)
Приватные разговоры
Помощь Пользователи
    Вы не присоединились ни к одной комнате.