За последнюю неделю опубликовано 29 новых материалов.
Инструкция новичку Путеводитель по форуму Прокси для Telegram Показать подсказки , это бомба!

Скачать Крепкий сон / Mientras duermes (2011) HDRip-AVC от ExKinoRay | A, L бесплатно через торрент

  • Поучаствуй (в качестве покупателя) в любых пяти совместных покупках (кроме завершённых и "Моментальных") и получи группу "Новичок" навсегда -> ссылка на раздел
  • Получай до 480 рублей за каждого приглашенного пользователя!
    представляем Вам очередное расширение партнерской программы, подробности описаны тут -> ссылка
  • 90% материалов доступно к скачиванию после простой регистрации!
    Если же ты хочешь скачивать материалы без требования оставлять отзывы то получи группу "Новичок", 10 способов повышения описаны тут -> ссылка
  • К сожалению количество битых ссылок растет и мы уже не можем их оперативно восстанавливать поэтому просим помощи у каждого нашего пользователя.
    С сегодняшнего дня, за каждую восстановленную ссылку мы заплатим Вам.
    Подробнее тут -> ссылка
  • Перенесем твои заслуги с другого ресурса!
    Мы понимаем как сложно прокачивать аккаунты на форумах, вроде раскачал аккаунт, а тут появляется ресурс в 100 раз круче но тоже с системой прокачки и снова качать аккаунт...
    Предлагаем вам перенести Ваши заслуги на другом подобном ресурсе к нам.
    Подробности описаны тут -> ссылка
  • Вы можете получать по 2.5% с каждой покупки и продажи на маркете! Подробности в теме Партнёрская программа
Если Вы не хотите скачивать, Вы всегда можетепосмотретьонлайн, просто нажмите кнопку ниже :

Открыть плеер

Torrent_Bot

Торрент-Бот
Бот форума
4 Окт 2016
96
155
20

Информация о фильме
Название: Крепкий сон / Пока ты спишь
Оригинальное название: Mientras duermes / Sleep Tight
Год выхода: 2011
Жанр: Триллер, драма
Режиссер: Жауме Балагуэро / Jaume Balagueró
В ролях: Луис Тосар, Марта Этура, Альберто Сан Хуан, Петра Мартинес, Ирис Альмейда, Карлос Ласарте, Ампаро Фернандес, Рохер Морилья, Пеп Тосар, Маргарита Росед

О фильме :
Главный герой — Сесар, работающий консьержем в небольшом жилом доме, в Барселоне. Кажется, что он маленький незаметный человек, который лишь открывает и закрывает двери, но на самом деле он тот, кто замечает и знает про жителей многоквартирного дома абсолютно все. Он глубоко несчастлив и ищет хоть какую-нибудь причину для дальнейшего своего существования. День за днем он выполняет свою работу и, пока на него никто из жителей дома не обращает особого внимания, сам он неустанно наблюдает за ними. Он знает каждую мелочь в их жизнях, все о них, а в особенности про одну из них…



Страна: Испания
Студия: Filmax Entertainmen
Продолжительность: 01:40:56
Перевод: Авторский одноголосый + Любительский многоголосый

Файл
Формат: MKV
Качество: HDRip-AVC
Видео: MPEG-4 AVC, 800x340, ~ 880 Кбит/с
Аудио #1: AAC-HE, 2 ch, ~ 76 Кбит/с | Авторский, Юрий Немахов
Аудио #2: AAC-HE, 2 ch, ~ 76 Кбит/с | Любительский многоголосый, «GalVid-Group»
Субтитры: Русские, английские

MI
Общее
Уникальный идентификатор : 186683557390335252310128642424172580162 (0x8C71F2012A43CF819AE7F7A8A3720D42)
Полное имя : D:MOVIESKrepkij son.2011.ExKinoRay.mkv
Формат : Matroska
Версия формата : Version 4 / Version 2
Размер файла : 747 Мбайт
Продолжительность : 1 ч. 40 м.
Общий поток : 1034 Кбит/сек
Дата кодирования : UTC 2018-09-08 09:24:14
Программа кодирования : mkvmerge v15.0.0 ('Duel with the Devil') 64-bit
Библиотека кодирования : libebml v1.3.5 + libmatroska v1.4.5

Видео
Идентификатор : 1
Формат : AVC
Формат/Информация : Advanced Video Codec
Профиль формата : High@L4.1
Параметр CABAC формата : Да
Параметр RefFrames формата : 12 кадров
Идентификатор кодека : V_MPEG4/ISO/AVC
Продолжительность : 1 ч. 40 м.
Битрейт : 880 Кбит/сек
Ширина : 800 пикселей
Высота : 340 пикселей
Соотношение сторон : 2,35:1
Режим частоты кадров : Постоянный
Частота кадров : 24,000 кадра/сек
Цветовое пространство : YUV
Субдискретизация насыщенности : 4:2:0
Битовая глубина : 8 бит
Тип развёртки : Прогрессивная
Бит/(Пиксели*Кадры) : 0.135
Размер потока : 635 Мбайт (85%)
Библиотека кодирования : x264 core 152 r2851kMod ba24899
Настройки программы : cabac=1 / ref=12 / deblock=1:-3:-3 / analyse=0x3:0x133 / me=umh / subme=10 / psy=1 / fade_compensate=0.00 / psy_rd=1.00:0.16 / mixed_ref=1 / me_range=32 / chroma_me=1 / trellis=2 / 8x8dct=1 / cqm=0 / deadzone=21,11 / fast_pskip=0 / chroma_qp_offset=-3 / threads=6 / lookahead_threads=1 / sliced_threads=0 / nr=0 / decimate=0 / interlaced=0 / bluray_compat=0 / constrained_intra=0 / bframes=11 / b_pyramid=2 / b_adapt=2 / b_bias=0 / direct=3 / weightb=1 / open_gop=0 / weightp=2 / keyint=240 / keyint_min=23 / scenecut=40 / intra_refresh=0 / rc_lookahead=40 / rc=2pass / mbtree=1 / bitrate=880 / ratetol=1.0 / qcomp=0.60 / qpmin=0 / qpmax=69 / qpstep=4 / cplxblur=20.0 / qblur=0.5 / ip_ratio=1.40 / aq=3:1.00
Default : Да
Forced : Нет

Аудио #1
Идентификатор : 2
Формат : AAC
Формат/Информация : Advanced Audio Codec
Профиль формата : HE-AAC / LC
Идентификатор кодека : A_AAC
Продолжительность : 1 ч. 40 м.
Битрейт : 76,0 Кбит/сек
Каналы : 2 канала
Расположение каналов : Front: L R
Частота : 48,0 КГц / 24,0 КГц
Частота кадров : 23,438 кадра/сек (1024 SPF)
Метод сжатия : С потерями
Задержка видео : 31 мс.
Размер потока : 54,9 Мбайт (7%)
Язык : Russian
Default : Да
Forced : Нет

Аудио #2
Идентификатор : 3
Формат : AAC
Формат/Информация : Advanced Audio Codec
Профиль формата : HE-AAC / LC
Идентификатор кодека : A_AAC
Продолжительность : 1 ч. 40 м.
Битрейт : 76,0 Кбит/сек
Каналы : 2 канала
Расположение каналов : Front: L R
Частота : 48,0 КГц / 24,0 КГц
Частота кадров : 23,438 кадра/сек (1024 SPF)
Метод сжатия : С потерями
Задержка видео : 31 мс.
Размер потока : 54,8 Мбайт (7%)
Язык : Russian
Default : Нет
Forced : Нет

Текст #1
Идентификатор : 4
Формат : UTF-8
Идентификатор кодека : S_TEXT/UTF8
Идентификатор кодека/Информация : UTF-8 Plain Text
Продолжительность : 1 ч. 36 м.
Битрейт : 60 бит/сек
ElementCount : 918
Размер потока : 42,7 Кбайт (0%)
Заголовок : русский
Язык : Russian
Default : Нет
Forced : Нет

Текст #2
Идентификатор : 5
Формат : UTF-8
Идентификатор кодека : S_TEXT/UTF8
Идентификатор кодека/Информация : UTF-8 Plain Text
Продолжительность : 1 ч. 36 м.
Битрейт : 33 бит/сек
ElementCount : 917
Размер потока : 23,6 Кбайт (0%)
Заголовок : английский
Default : Нет
Forced : Нет

Меню
00:00:00.000 : en:00:00:00.000
00:08:12.667 : en:00:08:12.667
00:17:22.625 : en:00:17:22.625
00:28:02.125 : en:00:28:02.125
00:35:43.375 : en:00:35:43.375
00:41:57.875 : en:00:41:57.875
00:50:29.625 : en:00:50:29.625
00:58:28.000 : en:00:58:28.000
01:10:20.958 : en:01:10:20.958
01:15:23.792 : en:01:15:23.792
01:23:12.583 : en:01:23:12.583
01:28:54.833 : en:01:28:54.833
Скриншоты
 

Вложения

  • 15,6 KB Просмотры: 1
    Личеров 0
    Сидеров 0
    Файлов 1
    Объем 746,7 MB

Привет!

Мы группа людей которые решили помочь другим в решении их проблем, а так же пользователям с поиском самых свежих и качественных инфопродуктов. За 4 с небольшим месяца мы создали этот форум на который заходят ежедневно тысячи человек и посещаемость постоянно растёт. Мы создали панель лицензирования для защиты PHP скриптов от воровства и SEO панель для мониторинга наших сайтов и выбора верной стратегии их развития. Мы надеемся что то что мы создали пригодится Вам и возможно Вы поможете нам развиваться и совершенствоваться вместе с Вами.

Статистика форума

Темы
406.520
Сообщения
464.554
Пользователи
82.903
Новый пользователь
Dvaiz

Приложения форума для iOS и Android


У ркн там нет власти ;)
Приватные разговоры
Помощь Пользователи
    Вы не присоединились ни к одной комнате.