За последнюю неделю опубликовано 82 новых материалов.
Инструкция новичку Путеводитель по форуму Прокси для Telegram Показать подсказки , это бомба!

Скачать Красотки-головорезы / Mezzo Forte [OVA] (2000-2001) DVDRip от Deadmauvlad | P | Лицензия бесплатно через торрент

  • Поучаствуй (в качестве покупателя) в любых пяти совместных покупках (кроме завершённых и "Моментальных") и получи группу "Новичок" навсегда -> ссылка на раздел
  • Получай до 480 рублей за каждого приглашенного пользователя!
    представляем Вам очередное расширение партнерской программы, подробности описаны тут -> ссылка
  • 90% материалов доступно к скачиванию после простой регистрации!
    Если же ты хочешь скачивать материалы без требования оставлять отзывы то получи группу "Новичок", 10 способов повышения описаны тут -> ссылка
  • К сожалению количество битых ссылок растет и мы уже не можем их оперативно восстанавливать поэтому просим помощи у каждого нашего пользователя.
    С сегодняшнего дня, за каждую восстановленную ссылку мы заплатим Вам.
    Подробнее тут -> ссылка
  • Перенесем твои заслуги с другого ресурса!
    Мы понимаем как сложно прокачивать аккаунты на форумах, вроде раскачал аккаунт, а тут появляется ресурс в 100 раз круче но тоже с системой прокачки и снова качать аккаунт...
    Предлагаем вам перенести Ваши заслуги на другом подобном ресурсе к нам.
    Подробности описаны тут -> ссылка
  • Вы можете получать по 2.5% с каждой покупки и продажи на маркете! Подробности в теме Партнёрская программа

Torrent_Bot

Торрент-Бот
Бот форума
4 Окт 2016
104
152
20


Информация о фильме
Название: Красотки-головорезы
Оригинальное название: Mezzo Forte
Год выхода: 2007-2008
Жанр: боевые искусства, комедия, приключения, фантастика, эротика, рейпу
Режиссер: Умэцу Ясуоми
Автор оригинала: Умэцу Ясуоми
В ролях: Томоко Котани, Такуми Ямадзаки, Таитиро Хирокава, Сёдзо Идзука, Риэ Исидзука, Норио Вакамото, Синъитиро Мики

О фильме: Неотразимая юная Микура вместе со своими отчаянными напарниками охотно берётся за самые головокружительные преступные авантюры. Не раздумывая, она пускает в ход пистолет и свои крепкие кулаки. Разбой и убийства - её стихия. Микура и её друзья обожают опасность, но похищение крутого мафиози Момокити приводит их к настоящим проблемам. Его киллеры сделают всё, чтобы спасти босса, однако даже они бледнеют перед дочкой Момокити, капризной красоткой Момоми, убивающей просто ради удовольствия. Психопатка-убийца Момоми решает сама разобраться с похитителями, но в лице Микуры она встретит достойную противницу.




Возрастное ограничение: 18+
Цензура:Отсутствует [Сцены Секса не Вырезаны!]
Страна: Япония
Студия: Green Bunny & Arms Studio
Продолжительность: 2 серии = ~00:59:59
Перевод: Профессиональный Многоголосый Закадровый MC Entertainment [Лицензия]



Файл
Кодек: XviD
Качество: DVDRip[Исходник: DVD5 From USA]
Формат видео: AVI / XviD
Видео: 720x528 (4:3), 23.976 fps, 1475 Кбит/сек (0.162 bit/pixel)
Аудио №1: AC3, 48.0 kHz, 6 ch, 384 kb/s, CBR | MC Entertainment
Аудио №2: AC3, 48.0 kHz, 6 ch, 384 kb/s, CBR | | Japan (Оригинал)
Субтитры: Русские, English, Polski Subtitles

MediaInfo
Общее
Полное имя : [Deadmau- RAWS] Mezzo.Forte.2000.DVDRip.RUS.JAP.Deadmauvlad.Ep.01.avi
Формат : AVI
Формат/Информация : Audio Video Interleave
Размер файла : 490 Мбайт
Продолжительность : 30 м. 21 с.
Общий поток : 2257 Кбит/сек
Название фильма : [Deadmau- RAWS] Красотки-головорезы.2000-2001.DVDRip.RUS.JAP.Deadmauvlad.Ep.01
Режиссёр : Encoder by Deadmauvlad
Жанр : фантастика, рейпу, хентай
Программа кодирования : VirtualDubMod 1.5.10.3 | www.virtualdub-fr.org || (build 2550/release)
Формат оригинала/Имя : Аниме
Авторское право : Encoder by Deadmauvlad
Примечание : Encoder by Deadmauvlad

Видео
Идентификатор : 0
Формат : MPEG-4 Visual
Профиль формата : Advanced Simple@L5
Настройки формата : BVOP1 / Custom Matrix
Параметр BVOP формата : 1
Параметр QPel формата : Нет
Параметр GMC формата : Без точки перехода
Параметр матрицы формата : Выборочная
Идентификатор кодека : XVID
Идентификатор кодека/Подсказка : XviD
Продолжительность : 30 м. 21 с.
Битрейт : 1475 Кбит/сек
Ширина : 720 пикселей
Высота : 528 пикселей
Соотношение сторон : 4:3
Частота кадров : 23,976 (24000/1001) кадра/сек
Цветовое пространство : YUV
Субдискретизация насыщенности : 4:2:0
Битовая глубина : 8 бит
Тип развёртки : Прогрессивная
Метод сжатия : С потерями
Бит/(Пиксели*Кадры) : 0.162
Размер потока : 320 Мбайт (65%)
Библиотека кодирования : XviD 73

Аудио #1
Идентификатор : 1
Формат : AC-3
Формат/Информация : Audio Coding 3
Коммерческое название : Dolby Digital
Идентификатор кодека : 2000
Продолжительность : 30 м. 21 с.
Вид битрейта : Постоянный
Битрейт : 384 Кбит/сек
Каналы : 6 каналов
Channel layout : L R C LFE Ls Rs
Частота : 48,0 КГц
Частота кадров : 31,250 кадров/сек (1536 SPF)
Битовая глубина : 16 бит
Метод сжатия : С потерями
Размер потока : 83,4 Мбайт (17%)
Выравнивание : Разделение по промежуткам
Продолжительность промежутка : 42 мс. (1,00 видеокадр)
Время предзагрузки промежутка : 500 мс.


Аудио #2
Идентификатор : 2
Формат : AC-3
Формат/Информация : Audio Coding 3
Коммерческое название : Dolby Digital
Идентификатор кодека : 2000
Продолжительность : 30 м. 21 с.
Вид битрейта : Постоянный
Битрейт : 384 Кбит/сек
Каналы : 6 каналов
Channel layout : L R C LFE Ls Rs
Частота : 48,0 КГц
Частота кадров : 31,250 кадров/сек (1536 SPF)
Битовая глубина : 16 бит
Метод сжатия : С потерями
Размер потока : 83,4 Мбайт (17%)
Выравнивание : Разделение по промежуткам
Продолжительность промежутка : 42 мс. (1,00 видеокадр)
Время предзагрузки промежутка : 500 мс.

DVD Обложки Российского Издания

Скриншоты
Резерв

ЦитатаКто-то писал:

1. Исходные диски а именно: Kite (Kite: Uncut & Kite Liberator) and Mezzo Forte приобретены на Ebay за совместные средства с Neko_FeliXXX
2. Раздача Кайт - Девочка убийца / Kite (1998) BDRip 1080p (Без Хентай сцен) тут
3. Скачивая данный релиз вы подтверждаете что вам более 18 лет, иначе ни релизер ни администрация ресурса не несет никакой ответственности !



Релиз / Автор рипа: Deadmauvlad >_<
 

Вложения

  • 21,2 KB Просмотры: 0
    Личеров 0
    Сидеров 0
    Файлов 8
    Объем 978,8 MB

Привет!

Мы группа людей которые решили помочь другим в решении их проблем, а так же пользователям с поиском самых свежих и качественных инфопродуктов. За 4 с небольшим месяца мы создали этот форум на который заходят ежедневно тысячи человек и посещаемость постоянно растёт. Мы создали панель лицензирования для защиты PHP скриптов от воровства и SEO панель для мониторинга наших сайтов и выбора верной стратегии их развития. Мы надеемся что то что мы создали пригодится Вам и возможно Вы поможете нам развиваться и совершенствоваться вместе с Вами.

Статистика форума

Темы
404.536
Сообщения
461.420
Пользователи
80.054
Новый пользователь
Дусёк

Приложения форума для iOS и Android


У ркн там нет власти ;)
Приватные разговоры
Помощь Пользователи
    Вы не присоединились ни к одной комнате.