За последнюю неделю опубликовано 36 новых материалов.
Инструкция новичку Путеводитель по форуму Прокси для Telegram Показать подсказки , это бомба!

Скачать Красный угол / Red Corner (1997) BDRip-AVC | P, P2 бесплатно через торрент

  • Поучаствуй (в качестве покупателя) в любых пяти совместных покупках (кроме завершённых и "Моментальных") и получи группу "Новичок" навсегда -> ссылка на раздел
  • Получай до 480 рублей за каждого приглашенного пользователя!
    представляем Вам очередное расширение партнерской программы, подробности описаны тут -> ссылка
  • 90% материалов доступно к скачиванию после простой регистрации!
    Если же ты хочешь скачивать материалы без требования оставлять отзывы то получи группу "Новичок", 10 способов повышения описаны тут -> ссылка
  • К сожалению количество битых ссылок растет и мы уже не можем их оперативно восстанавливать поэтому просим помощи у каждого нашего пользователя.
    С сегодняшнего дня, за каждую восстановленную ссылку мы заплатим Вам.
    Подробнее тут -> ссылка
  • Перенесем твои заслуги с другого ресурса!
    Мы понимаем как сложно прокачивать аккаунты на форумах, вроде раскачал аккаунт, а тут появляется ресурс в 100 раз круче но тоже с системой прокачки и снова качать аккаунт...
    Предлагаем вам перенести Ваши заслуги на другом подобном ресурсе к нам.
    Подробности описаны тут -> ссылка
  • Вы можете получать по 2.5% с каждой покупки и продажи на маркете! Подробности в теме Партнёрская программа
Если Вы не хотите скачивать, Вы всегда можетепосмотретьонлайн, просто нажмите кнопку ниже :

Открыть плеер

Torrent_Bot

Торрент-Бот
Бот форума
4 Окт 2016
91
163
20



Информация о фильме
Название: Красный угол
Оригинальное название: Red Corner
Год выпуска: 1997
Жанр: Драма, криминал, триллер
Выпущено: США, Avnet/Kerner Productions, Metro-Goldwyn-Mayer (MGM)
Режиссер: Джон Эвнет
В ролях: Ричард Гир, Бай Линь, Брэдли Уитфорд, Байрон Манн, Питер Донэт, Роберт Стэнтон, Цай Чинь, Джеймс Хонг, Тзи Ма, Ричард Вентура, Роджер Юан, Генри О, Роберт Лин, Ло Минг, Кен Люн, Кент Фалкон, Пол Чен, Ульрих Мэтшосс, Кванг Гао, Пинг Жонг, Майк Ву, Джек Хуанг, Шейла Луссьер, Дин Нолен

О фильме:
Преуспевающий американец Джек Мур, добившийся небывалого делового контракта в Китае, ощущал себя на вершине мира. Но торжество оказалось недолговечным. Он проводит ночь с прекрасной женщиной, после чего обвиняется в ее зверском убийстве. По милости непреклонного китайского правосудия, по которому подозреваемый равен виновному, Джек остается абсолютно одиноким, если не считать назначенной ему женщины-адвоката, преданной законам своего государства. Но, в процессе расследования докапываясь до истины, она все больше убеждается в невиновности подзащитного…



Продолжительность: 02:02:16
Перевод: Профессиональный (многоголосый, закадровый) + профессиональный (двухголосый, закадровый)
Субтитры: Английские

Файл
Формат: Matroska
Качество: BDRip-AVC
Видео: 1026x552 at 23.976 fps, x264, ~3500 kbps
Аудио #1: AC3; Rus; 48000Hz; 2ch; 192kbps - DVO [НТВ+]
Аудио #2: AC3; Rus; 48000Hz; 2ch; 192kbps - MVO [НТВ]
Аудио #3: AC3; Rus; 48000Hz; 2ch; 192kbps - MVO [Варус Видео]

***Релиз от:-=DoMiNo=-

Аудио дороги - отдельно от раздачи - может кому пригодятся:
Аудио #2: AC3; Rus; 48000Hz; 2ch; 192kbps - Профессиональный (многоголосый, закадровый) [НТВ]

Аудио #3: AC3; Rus; 48000Hz; 2ch; 192kbps - Профессиональный (многоголосый, закадровый) [Варус Видео]

Аудио #4: AC3; Rus; 48000Hz; 2ch; 192kbps - Профессиональный (многоголосый, закадровый) [ОРТ]

Аудио #5: AC3; Rus; 48000Hz; 6ch; 384kbps - Авторский (одноголосый) [Юрий Живов]

Аудио #8: AC3; Eng; 48000Hz; 6ch; 512kbps - Оригинал
Дополнительно:
Исходник - Red.Corner.1997.1080p.BluRay.REMUX.AVC.DD5.1-FGT

Информация о переводах:
1) Телекомпания "НТВ+" - текст читали артисты Ольга Голованова и Михаил Тихонов.
2) Телекомпания "НТВ+" по заказу телеканала "НТВ" - текст читали артисты Наталья Казначеева, Дмитрий Полонский, Александр Белый, Олег Вирозуб и Игорь Тарадайкин.
3) Студия "Варус-Видео" - текст читали артисты Наталья Казначеева, Владимир Конкин и Алексей Борзунов .

Интересно:
- Чтобы фильм больше соответствовал реальности, режиссер Джон Эвнет, сопродюсер Мартин Хаберти и актриса Бай Линь целую неделю проводили съемки в Пекине партизанским способом (без ведома и разрешения местных властей). В итоге этот город был впервые в истории запечатлен на 35-миллиметровую кинопленку специально для голливудской картины.
- Во время съемок сцены, где героя Ричарда Гира устрашают показом зафиксированной на видеопленку казни, были использованы настоящие видеоматериалы, нелегально вывезенные из Китая.
- Художник-постановщик картины Ричард Силберт два раза ездил в Китай, где сделал 1500 фотографий, что помогло ему в создании декораций.
- Большинство сцен на натуре были сняты неподалеку от лос-анджелесского международного аэропорта, где на территории, занимавшей семь акров, был воспроизведен один из районов Пекина. Специально из Китая туда были привезены 300 велосипедов, 15 автомобилей и тысяча всевозможных предметов (от печек до крышек люков).
M/I
General
Unique ID : 332142676656148707174052731376133600386 (0xF9E05A491CAB4B19A3608ACA6CCDF482)
Complete name : Красный угол.(1997).BDRip-AVC.[-=DoMiNo=-].mkv
Format : Matroska
Format version : Version 4
File size : 3.48 GiB
Duration : 2 h 2 min
Overall bit rate : 4 077 kb/s
Movie name : Красный угол / Red Corner (1997)
Encoded date : UTC 2019-06-23 05:40:56
Writing application : mkvmerge v35.0.0 ('All The Love In The World') 64-bit
Writing library : libebml v1.3.9 + libmatroska v1.5.2
Attachments : poster / poster

Video
ID : 1
Format : AVC
Format/Info : Advanced Video Codec
Format profile : [email protected]
Format settings : CABAC / 14 Ref Frames
Format settings, CABAC : Yes
Format settings, Reference : 14 frames
Codec ID : V_MPEG4/ISO/AVC
Duration : 2 h 2 min
Bit rate : 3 500 kb/s
Width : 1 026 pixels
Height : 552 pixels
Display aspect ratio : 1.85:1
Frame rate mode : Constant
Frame rate : 23.976 (24000/1001) FPS
Color space : YUV
Chroma subsampling : 4:2:0
Bit depth : 8 bits
Scan type : Progressive
Bits/(Pixel*Frame) : 0.258
Stream size : 2.99 GiB (86%)
Title : RIP_BY_-=DoMiNo=-
Writing library : x264 core 157 r2969 d4099dd
Encoding settings : cabac=1 / ref=14 / deblock=1:-3:-3 / analyse=0x3:0x133 / me=umh / subme=11 / psy=1 / psy_rd=1.00:0.00 / mixed_ref=1 / me_range=32 / chroma_me=1 / trellis=2 / 8x8dct=1 / cqm=0 / deadzone=21,11 / fast_pskip=0 / chroma_qp_offset=-2 / threads=6 / lookahead_threads=1 / sliced_threads=0 / nr=0 / decimate=0 / interlaced=0 / bluray_compat=0 / constrained_intra=0 / bframes=12 / b_pyramid=2 / b_adapt=2 / b_bias=0 / direct=3 / weightb=1 / open_gop=0 / weightp=2 / keyint=240 / keyint_min=23 / scenecut=40 / intra_refresh=0 / rc=2pass / mbtree=0 / bitrate=3500 / ratetol=1.0 / qcomp=0.70 / qpmin=0 / qpmax=69 / qpstep=4 / cplxblur=20.0 / qblur=0.5 / ip_ratio=1.40 / pb_ratio=1.30 / aq=3:0.90
Language : English
Default : Yes
Forced : No
Color range : Limited
Color primaries : BT.709
Transfer characteristics : BT.709
Matrix coefficients : BT.709

Audio #1
ID : 2
Format : AC-3
Format/Info : Audio Coding 3
Commercial name : Dolby Digital
Codec ID : A_AC3
Duration : 2 h 2 min
Bit rate mode : Constant
Bit rate : 192 kb/s
Channel(s) : 2 channels
Channel layout : L R
Sampling rate : 48.0 kHz
Frame rate : 31.250 FPS (1536 SPF)
Bit depth : 16 bits
Compression mode : Lossy
Stream size : 168 MiB (5%)
Title : Профессиональный (двухголосый закадровый) НТВ+
Language : Russian
Service kind : Complete Main
Default : Yes
Forced : No

Audio #2
ID : 3
Format : AC-3
Format/Info : Audio Coding 3
Commercial name : Dolby Digital
Codec ID : A_AC3
Duration : 2 h 2 min
Bit rate mode : Constant
Bit rate : 192 kb/s
Channel(s) : 2 channels
Channel layout : L R
Sampling rate : 48.0 kHz
Frame rate : 31.250 FPS (1536 SPF)
Bit depth : 16 bits
Compression mode : Lossy
Stream size : 168 MiB (5%)
Title : Профессиональный (многоголосый закадровый) НТВ
Language : Russian
Service kind : Complete Main
Default : No
Forced : No

Audio #3
ID : 4
Format : AC-3
Format/Info : Audio Coding 3
Commercial name : Dolby Digital
Codec ID : A_AC3
Duration : 2 h 2 min
Bit rate mode : Constant
Bit rate : 192 kb/s
Channel(s) : 2 channels
Channel layout : L R
Sampling rate : 48.0 kHz
Frame rate : 31.250 FPS (1536 SPF)
Bit depth : 16 bits
Compression mode : Lossy
Stream size : 168 MiB (5%)
Title : Профессиональный (многоголосый закадровый) Варус Видео
Language : Russian
Service kind : Complete Main
Default : No
Forced : No

Text
ID : 5
Format : UTF-8
Codec ID : S_TEXT/UTF8
Codec ID/Info : UTF-8 Plain Text
Duration : 1 h 56 min
Bit rate : 51 b/s
Count of elements : 1161
Stream size : 43.6 KiB (0%)
Title : ENG
Language : English
Default : No
Forced : No

Menu
00:00:00.000 : :Chapter 01
00:01:19.829 : :Chapter 02
00:03:00.263 : :Chapter 03
00:15:25.049 : :Chapter 04
00:31:10.076 : :Chapter 05
00:45:25.222 : :Chapter 06
01:00:27.874 : :Chapter 07
01:14:51.737 : :Chapter 08
01:30:03.731 : :Chapter 09
01:45:34.911 : :Chapter 10
01:57:40.094 : :Chapter 11
Скриншоты
 

Вложения

  • 18,4 KB Просмотры: 1
    Личеров 0
    Сидеров 0
    Файлов 1
    Объем 3,5 GB

Привет!

Мы группа людей которые решили помочь другим в решении их проблем, а так же пользователям с поиском самых свежих и качественных инфопродуктов. За 4 с небольшим месяца мы создали этот форум на который заходят ежедневно тысячи человек и посещаемость постоянно растёт. Мы создали панель лицензирования для защиты PHP скриптов от воровства и SEO панель для мониторинга наших сайтов и выбора верной стратегии их развития. Мы надеемся что то что мы создали пригодится Вам и возможно Вы поможете нам развиваться и совершенствоваться вместе с Вами.

Статистика форума

Темы
410.488
Сообщения
469.048
Пользователи
85.749
Новый пользователь
mershmse

Приложения форума для iOS и Android


У ркн там нет власти ;)
Приватные разговоры
Помощь Пользователи
    Вы не присоединились ни к одной комнате.