За последнюю неделю опубликовано 150 новых материалов.
Инструкция новичку Путеводитель по форуму Прокси для Telegram Показать подсказки , это бомба!

Скачать Красный лёд. Сага о хантах (2009) DVDRip от ExKinoRay бесплатно через торрент

  • Поучаствуй (в качестве покупателя) в любых пяти совместных покупках (кроме завершённых и "Моментальных") и получи группу "Новичок" навсегда -> ссылка на раздел
  • Получай до 480 рублей за каждого приглашенного пользователя!
    представляем Вам очередное расширение партнерской программы, подробности описаны тут -> ссылка
  • 90% материалов доступно к скачиванию после простой регистрации!
    Если же ты хочешь скачивать материалы без требования оставлять отзывы то получи группу "Новичок", 10 способов повышения описаны тут -> ссылка
  • К сожалению количество битых ссылок растет и мы уже не можем их оперативно восстанавливать поэтому просим помощи у каждого нашего пользователя.
    С сегодняшнего дня, за каждую восстановленную ссылку мы заплатим Вам.
    Подробнее тут -> ссылка
  • Перенесем твои заслуги с другого ресурса!
    Мы понимаем как сложно прокачивать аккаунты на форумах, вроде раскачал аккаунт, а тут появляется ресурс в 100 раз круче но тоже с системой прокачки и снова качать аккаунт...
    Предлагаем вам перенести Ваши заслуги на другом подобном ресурсе к нам.
    Подробности описаны тут -> ссылка
  • Вы можете получать по 2.5% с каждой покупки и продажи на маркете! Подробности в теме Партнёрская программа
Если Вы не хотите скачивать, Вы всегда можетепосмотретьонлайн, просто нажмите кнопку ниже :

Открыть плеер

Torrent_Bot

Торрент-Бот
Бот форума
4 Окт 2016
82
186
20
Информация о фильме

Оригинальное название: Красный лёд. Сага о хантах
Год выпуска: 2009
Жанр:Драма, история
Выпущено: Россия, Югра-фильм
Режиссер: Олег Фесенко
В ролях: Александр Лымарев, Марина Александрова, Александр Баширов, Дин Махаматдинов, Бибигуль Суюншалина, Михаил Евланов, Дарья Мороз, Валерий Зеленский, Александр Лобанов


О фильме: Фильм основан на реальных событиях и повествует о восстании остяков (хантов) против Советской власти в районе реки Казым в начале 30-х годов ХХ века. Действие картины начинается еще до революции со свадьбы дочери местного православного священника, Веры с одним из остяков. Возлюбленный девушки, Илья, не успевает к венчанию и покидает деревню Богоставленку. В 30-х годах, Илья, командир Красной Армии, возвращается в родные края во главе отряда красноармейцев. В Богоставленке основан оленеводческий отряд, который возглавляет председатель Чухновский. Когда из центра приходит сообщение о необходимости борьбы с представителями культа, Чухновский со своими людьми уничтожает святыню предков на священном острове. Ханты из Богоставленки становятся стойбищем в излучине Казыма, вскоре к ним присоединяются остяки из других селений, и тогда Илья получает приказ из центра вести войска на штурм восставших.





Файл
Качество: DVDRip
Видео: XviD, 1991 Кбит/с, 704x400, 25 кадр/с
Аудио: AC3, 2 ch, 384 Кбит/с
Продолжительность: 01:27:00
Язык: Русский


Exclusive from ExKinoRay

--------------------------------------------------------------
Огромная Благодарность за предоставленную копию диска и возможность Всем увидеть эту кино картину - wolot

Интересно
* Сценарий картины «Красный лёд. Сага о хантах» создан по мотивам исторической драмы «Божья матерь в кровавых снегах» Еремея Айпина. В основе сюжета лежат исторические события, происходящие в Восточной Сибири в 30-х годах ХХ века.
* Лента насыщена моментами, повествующими о культуре и традициях хантов, сценами жертвоприношения, обрядами поклонения медведю и хантыйской свадьбой.
* Фильм показали на закрытии торжественной церемонии фестиваля "Дух огня" в Ханты - Мансийске еще в 2009 году, но в прокат он так не вышел.
* Открытие и закрытие фестиваля - мероприятия закрытые, вход был по приглашениям, так же фильм показывался и в кинотеатрах ХМАО, но почему то для очень ограниченного круга лиц.
* С 2009 года по 08-01-2015 в сети присутсвововали только ролики этого фильма.

Медиа-инфо
General
Complete name : C:Krasniy.led.2009.O.DVDRip.ExKinoRay.avi
Format : AVI
Format/Info : Audio Video Interleave
File size : 1.45 GiB
Duration : 1h 27mn
Overall bit rate : 2 385 Kbps
Writing application : VirtualDubMod 1.5.10.2 (build 2540/release)
Writing library : VirtualDubMod build 2540/release
Copyright : ExkinoRay

Video
ID : 0
Format : MPEG-4 Visual
Format profile : Advanced [email protected]
Format settings, BVOP : 1
Format settings, QPel : No
Format settings, GMC : No warppoints
Format settings, Matrix : Custom
Codec ID : XVID
Codec ID/Hint : XviD
Duration : 1h 27mn
Bit rate : 1 991 Kbps
Width : 704 pixels
Height : 400 pixels
Display aspect ratio : 16:9
Frame rate : 25.000 fps
Color space : YUV
Chroma subsampling : 4:2:0
Bit depth : 8 bits
Scan type : Progressive
Compression mode : Lossy
Bits/(Pixel*Frame) : 0.283
Stream size : 1.21 GiB (83%)
Writing library : XviD 73

Audio
ID : 1
Format : AC-3
Format/Info : Audio Coding 3
Mode extension : CM (complete main)
Format settings, Endianness : Big
Codec ID : 2000
Duration : 1h 27mn
Bit rate mode : Constant
Bit rate : 384 Kbps
Channel(s) : 2 channels
Channel positions : Front: L R
Sampling rate : 48.0 KHz
Bit depth : 16 bits
Compression mode : Lossy
Stream size : 239 MiB (16%)
Alignment : Split accross interleaves
Interleave, duration : 40 ms (1.00 video frame)
Interleave, preload duration : 500 ms
Скриншоты


Релиз от:

Автор релиза:
 

Вложения

  • 15,6 KB Просмотры: 0
    Личеров 0
    Сидеров 0
    Файлов 1
    Объем 1,4 GB

Привет!

Мы группа людей которые решили помочь другим в решении их проблем, а так же пользователям с поиском самых свежих и качественных инфопродуктов. За 4 с небольшим месяца мы создали этот форум на который заходят ежедневно тысячи человек и посещаемость постоянно растёт. Мы создали панель лицензирования для защиты PHP скриптов от воровства и SEO панель для мониторинга наших сайтов и выбора верной стратегии их развития. Мы надеемся что то что мы создали пригодится Вам и возможно Вы поможете нам развиваться и совершенствоваться вместе с Вами.

Статистика форума

Темы
412.341
Сообщения
471.459
Пользователи
91.888
Новый пользователь
mikchau

Приложения форума для iOS и Android


У ркн там нет власти ;)
Приватные разговоры
Помощь Пользователи
    Вы не присоединились ни к одной комнате.