За последнюю неделю опубликовано 59 новых материалов.
Инструкция новичку Путеводитель по форуму Прокси для Telegram Показать подсказки , это бомба!

Скачать Красавица Мемфиса / Memphis Belle (1990) BDRip-AVC | D бесплатно через торрент

  • Поучаствуй (в качестве покупателя) в любых пяти совместных покупках (кроме завершённых и "Моментальных") и получи группу "Новичок" навсегда -> ссылка на раздел
  • Получай до 480 рублей за каждого приглашенного пользователя!
    представляем Вам очередное расширение партнерской программы, подробности описаны тут -> ссылка
  • 90% материалов доступно к скачиванию после простой регистрации!
    Если же ты хочешь скачивать материалы без требования оставлять отзывы то получи группу "Новичок", 10 способов повышения описаны тут -> ссылка
  • К сожалению количество битых ссылок растет и мы уже не можем их оперативно восстанавливать поэтому просим помощи у каждого нашего пользователя.
    С сегодняшнего дня, за каждую восстановленную ссылку мы заплатим Вам.
    Подробнее тут -> ссылка
  • Перенесем твои заслуги с другого ресурса!
    Мы понимаем как сложно прокачивать аккаунты на форумах, вроде раскачал аккаунт, а тут появляется ресурс в 100 раз круче но тоже с системой прокачки и снова качать аккаунт...
    Предлагаем вам перенести Ваши заслуги на другом подобном ресурсе к нам.
    Подробности описаны тут -> ссылка
  • Вы можете получать по 2.5% с каждой покупки и продажи на маркете! Подробности в теме Партнёрская программа
Если Вы не хотите скачивать, Вы всегда можетепосмотретьонлайн, просто нажмите кнопку ниже :

Открыть плеер

Torrent_Bot

Торрент-Бот
Бот форума
4 Окт 2016
90
168
20
Информация о фильме
Название: Красавица Мемфиса
Оригинальное название: Memphis Belle
Год выпуска: 1990
Жанр: Боевик, драма, военный
Режиссер: Майкл Кейтон-Джонс
В ролях: Мэттью Модайн, Эрик Штольц, Тейт Донован, Д.Б. Суини, Билли Зейн, Шон Эстин, Гарри Конник мл., Рид Даймонд, Кортни Гейнс, Нил Джунтоли

Описание:
В июне 1943 года летающая крепость «Memphis Belle» (B-17F-10-BO серийный номер 41-24485) из 324-й бомбардировочной эскадрильи 91-й BG стал первым B-17, который уцелел после 25 боевых вылетов. В ходе вылета «Memphis Belle» на бомбежку Вильгельмсхафена на борту находилась съемочная группа. Снятый фильм широко показывался в течение войны. После 25-го вылета самолет был возвращен в США, где участвовал в полетах с целью продажи облигаций военного займа США (US War Bonds).



Выпущено: США, Япония, Великобритания / BSB, County Natwest Ventures, Enigma Film , Fujisankei, Warner Bros. Pictures Co.
Продолжительность: 01:47:12
Перевод: Дублированный

Файл
Формат: .mkv
Качество: BDRip-AVC (Исходник BD-Remux [1080p])
Видео: MPEG-4 AVC, 1748 Кбит/с, 960x540, 23.976 кадр/с
Аудио: Русский (AC3, 2 ch, 192 Кбит/с) / Дублированный

M/I
General
Unique ID : 217220755689179347399200103664208033014 (0xA36B321F73BEF19DAA425F86521BB4F6)
Complete name : F:Memphis Belle(1990)BDRip-AVC.[-=DoMiNo=-].mkv
Format : Matroska
Format version : Version 2
File size : 1.45 GiB
Duration : 1h 47mn
Overall bit rate : 1 939 Kbps
Encoded date : UTC 2014-05-05 19:44:56
Writing application : mkvmerge v6.1.0 ('Old Devil') built on Mar 4 2013 09:10:42
Writing library : libebml v1.3.0 + libmatroska v1.4.0

Video
ID : 1
Format : AVC
Format/Info : Advanced Video Codec
Format profile : [email protected]
Format settings, CABAC : Yes
Format settings, ReFrames : 8 frames
Codec ID : V_MPEG4/ISO/AVC
Duration : 1h 47mn
Bit rate : 1 748 Kbps
Width : 960 pixels
Height : 540 pixels
Display aspect ratio : 16:9
Frame rate mode : Constant
Frame rate : 23.976 fps
Color space : YUV
Chroma subsampling : 4:2:0
Bit depth : 8 bits
Scan type : Progressive
Bits/(Pixel*Frame) : 0.141
Stream size : 1.28 GiB (88%)
Writing library : x264 core 130 r2273 b3065e6
Encoding settings : cabac=1 / ref=8 / deblock=1:-3:-3 / analyse=0x3:0x133 / me=umh / subme=11 / psy=1 / psy_rd=1.00:0.50 / mixed_ref=1 / me_range=32 / chroma_me=1 / trellis=2 / 8x8dct=1 / cqm=0 / deadzone=21,11 / fast_pskip=0 / chroma_qp_offset=-3 / threads=16 / lookahead_threads=4 / sliced_threads=0 / nr=0 / decimate=1 / interlaced=0 / bluray_compat=0 / constrained_intra=0 / bframes=8 / b_pyramid=2 / b_adapt=2 / b_bias=0 / direct=3 / weightb=1 / open_gop=0 / weightp=2 / keyint=240 / keyint_min=23 / scenecut=40 / intra_refresh=0 / rc_lookahead=150 / rc=2pass / mbtree=1 / bitrate=1748 / ratetol=1.0 / qcomp=0.70 / qpmin=10 / qpmax=51 / qpstep=4 / cplxblur=20.0 / qblur=0.5 / ip_ratio=1.40 / aq=2:2.00
Default : Yes
Forced : No

Audio
ID : 2
Format : AC-3
Format/Info : Audio Coding 3
Mode extension : CM (complete main)
Format settings, Endianness : Big
Codec ID : A_AC3
Duration : 1h 47mn
Bit rate mode : Constant
Bit rate : 192 Kbps
Channel(s) : 2 channels
Channel positions : Front: L R
Sampling rate : 48.0 KHz
Bit depth : 16 bits
Compression mode : Lossy
Stream size : 147 MiB (10%)
Title : Dub
Language : Russian
Default : Yes
Forced : No
Скриншоты
 

Вложения

  • 15,5 KB Просмотры: 1
    Личеров 0
    Сидеров 0
    Файлов 1
    Объем 1,5 GB
  • 15,5 KB Просмотры: 1

Привет!

Мы группа людей которые решили помочь другим в решении их проблем, а так же пользователям с поиском самых свежих и качественных инфопродуктов. За 4 с небольшим месяца мы создали этот форум на который заходят ежедневно тысячи человек и посещаемость постоянно растёт. Мы создали панель лицензирования для защиты PHP скриптов от воровства и SEO панель для мониторинга наших сайтов и выбора верной стратегии их развития. Мы надеемся что то что мы создали пригодится Вам и возможно Вы поможете нам развиваться и совершенствоваться вместе с Вами.

Статистика форума

Темы
410.941
Сообщения
469.355
Пользователи
88.282
Новый пользователь
rfgfxfgg

Приложения форума для iOS и Android


У ркн там нет власти ;)
Приватные разговоры
Помощь Пользователи
    Вы не присоединились ни к одной комнате.