За последнюю неделю опубликовано 30 новых материалов.
Инструкция новичку Путеводитель по форуму Прокси для Telegram Показать подсказки , это бомба!

Скачать Красавица и чудовище: Дилогия / Beauty and the Beast: Dilogy (1991, 1997) BDRip-HEVC 1080p от HEVC-CLUB | D бесплатно через торрент

  • Поучаствуй (в качестве покупателя) в любых пяти совместных покупках (кроме завершённых и "Моментальных") и получи группу "Новичок" навсегда -> ссылка на раздел
  • Получай до 480 рублей за каждого приглашенного пользователя!
    представляем Вам очередное расширение партнерской программы, подробности описаны тут -> ссылка
  • 90% материалов доступно к скачиванию после простой регистрации!
    Если же ты хочешь скачивать материалы без требования оставлять отзывы то получи группу "Новичок", 10 способов повышения описаны тут -> ссылка
  • К сожалению количество битых ссылок растет и мы уже не можем их оперативно восстанавливать поэтому просим помощи у каждого нашего пользователя.
    С сегодняшнего дня, за каждую восстановленную ссылку мы заплатим Вам.
    Подробнее тут -> ссылка
  • Перенесем твои заслуги с другого ресурса!
    Мы понимаем как сложно прокачивать аккаунты на форумах, вроде раскачал аккаунт, а тут появляется ресурс в 100 раз круче но тоже с системой прокачки и снова качать аккаунт...
    Предлагаем вам перенести Ваши заслуги на другом подобном ресурсе к нам.
    Подробности описаны тут -> ссылка
  • Вы можете получать по 2.5% с каждой покупки и продажи на маркете! Подробности в теме Партнёрская программа
Если Вы не хотите скачивать, Вы всегда можетепосмотретьонлайн, просто нажмите кнопку ниже :

Открыть плеер

Torrent_Bot

Торрент-Бот
Бот форума
4 Окт 2016
93
160
20


Жанр:мультфильм, мюзикл, фэнтези, мелодрама, семейный

Год выпуска: 1991 / 1997

Продолжительность: 01:31:44 / 01:10:43

Режиссёр: Гари Труздейл, Кирк Уайз, Эндрю Найт

Описание: Сказочная история о любви, верности и самопожертвовании. Все мы давно знаем, что любовь творит чудеса. Именно так и произошло в этой сказочной истории. Фильм приглашает в зачарованный замок, скрытый в чаще темного волшебного леса. Любовь Белл к Чудовищу изменит все вокруг и все заколдованные предметы в замке снова станут людьми, даже маленький Чип, некогда бывший всего лишь маленькой чашечкой...


Красавица и чудовище / Beauty and the Beast (1991)
Год выхода: 1991
Страна / Студия: США / Walt Disney Pictures, Silver Screen Partners IV, Walt Disney Animation Studios
Жанр:мультфильм, мюзикл, фэнтези, мелодрама, семейный
Продолжительность: 01:31:44
Перевод: Дублированный

Режиссер: Гари Труздейл, Кирк Уайз

Описание: В заколдованном замке, скрытом в темном лесу, живет ужасное Чудовище. Растопить лед в его сердце и вернуть ему человеческий облик, сняв заклятие, может только прекрасная девушка, которая полюбит его таким, какой он есть.

Качество: BDRip 1080p
Видео: HEVC/H.265, 1920x1080, ~6398 Kbps
Аудио 1: AC3, 6 ch, 640 Kbps - Русский, дублированный
Аудио 2: AC3, 6 ch, 640 Kbps - Украинский, дублированный
Аудио 3: AC3, 6 ch, 640 Kbps - Английский
Субтитры: Русские, украинские, английские



Релиз от: Мичман

Mediainfo
====================================
x265 [info]: frame I: Avg QP:15.56 kb/s
x265 [info]: frame P: Avg QP:17.55 kb/s
x265 [info]: frame B: Avg QP:20.66 kb/s
====================================
Общее
Уникальный идентификатор : 162020514481925310069904540181978243249 (0x79E4041B7F53AB59090E1CD3A09560B1)
Полное имя : R:Beauty and the BeastBeauty and the Beast (1991) BDRip-HEVC 1080p.mkv
Формат : Matroska
Версия формата : Version 4 / Version 2
Размер файла : 5,33 Гбайт
Продолжительность : 1 ч. 31 м.
Общий поток : 8321 Кбит/сек
Название фильма : Beauty and the Beast (1991)
Дата кодирования : UTC 2020-05-22 03:42:31
Программа кодирования : mkvmerge v43.0.0 ('The Quartermaster') 64-bit
Библиотека кодирования : libebml v1.3.10 + libmatroska v1.5.2
Обложка : Yes
Attachments : cover.jpg

Видео
Идентификатор : 1
Формат : HEVC
Формат/Информация : High Efficiency Video Coding
Профиль формата : Main [email protected]@High
Идентификатор кодека : V_MPEGH/ISO/HEVC
Продолжительность : 1 ч. 31 м.
Битрейт : 6398 Кбит/сек
Ширина : 1920 пикселей
Высота : 1080 пикселей
Соотношение сторон : 16:9
Режим частоты кадров : Постоянный
Частота кадров : 23,976 (23976/1000) кадра/сек
Частота кадров в оригинале : 23,976 (24000/1001) кадра/сек
Цветовое пространство : YUV
Субдискретизация насыщенности : 4:2:0
Битовая глубина : 10 бит
Бит/(Пиксели*Кадры) : 0.129
Размер потока : 4,10 Гбайт (77%)
Библиотека кодирования : x265 3.3+1-g554c887ac:[Windows][MSVC 1924][64 bit] 10bit
Настройки программы : cpuid=1111039 / frame-threads=3 / numa-pools=12 / wpp / no-pmode / no-pme / no-psnr / no-ssim / log-level=2 / input-csp=1 / input-res=1920x1080 / interlace=0 / total-frames=123657 / level-idc=41 / high-tier=1 / uhd-bd=0 / ref=5 / no-allow-non-conformance / no-repeat-headers / annexb / no-aud / no-hrd / info / hash=0 / no-temporal-layers / open-gop / min-keyint=23 / keyint=240 / gop-lookahead=0 / bframes=8 / b-adapt=2 / b-pyramid / bframe-bias=0 / rc-lookahead=60 / lookahead-slices=4 / scenecut=40 / hist-scenecut=0 / radl=0 / no-splice / no-intra-refresh / ctu=32 / min-cu-size=8 / rect / amp / max-tu-size=32 / tu-inter-depth=4 / tu-intra-depth=4 / limit-tu=1 / rdoq-level=2 / dynamic-rd=0.00 / no-ssim-rd / signhide / no-tskip / nr-intra=0 / nr-inter=0 / no-constrained-intra / no-strong-intra-smoothing / max-merge=4 / limit-refs=2 / limit-modes / me=3 / subme=7 / merange=57 / temporal-mvp / no-frame-dup / no-hme / weightp / weightb / no-analyze-src-pics / deblock=-3:-3 / no-sao / no-sao-non-deblock / rd=6 / selective-sao=0 / no-early-skip / no-rskip / no-fast-intra / no-tskip-fast / no-cu-lossless / no-b-intra / no-splitrd-skip / rdpenalty=0 / psy-rd=2.00 / psy-rdoq=1.00 / no-rd-refine / no-lossless / cbqpoffs=0 / crqpoffs=0 / rc=crf / crf=20.0 / qcomp=0.65 / qpstep=4 / stats-write=0 / stats-read=0 / vbv-maxrate=50000 / vbv-bufsize=50000 / vbv-init=0.9 / crf-max=0.0 / crf-min=0.0 / ipratio=1.40 / pbratio=1.30 / aq-mode=1 / aq-strength=1.00 / no-cutree / zone-count=0 / no-strict-cbr / qg-size=32 / no-rc-grain / qpmax=69 / qpmin=0 / no-const-vbv / sar=1 / overscan=0 / videoformat=5 / range=0 / colorprim=1 / transfer=1 / colormatrix=1 / chromaloc=0 / display-window=0 / cll=0,0 / min-luma=0 / max-luma=1023 / log2-max-poc-lsb=8 / vui-timing-info / vui-hrd-info / slices=1 / no-opt-qp-pps / no-opt-ref-list-length-pps / no-multi-pass-opt-rps / scenecut-bias=0.05 / hist-threshold=0.01 / no-opt-cu-delta-qp / no-aq-motion / no-hdr10 / no-hdr10-opt / no-dhdr10-opt / no-idr-recovery-sei / analysis-reuse-level=0 / analysis-save-reuse-level=0 / analysis-load-reuse-level=0 / scale-factor=0 / refine-intra=0 / refine-inter=0 / refine-mv=1 / refine-ctu-distortion=0 / no-limit-sao / ctu-info=0 / no-lowpass-dct / refine-analysis-type=0 / copy-pic=1 / max-ausize-factor=1.0 / no-dynamic-refine / no-single-sei / no-hevc-aq / no-svt / no-field / qp-adaptation-range=1.00 / no-scenecut-aware-qpconformance-window-offsets / right=0 / bottom=0
Default : Да
Forced : Нет
Цветовой диапазон : Limited
Основные цвета : BT.709
Характеристики трансфера : BT.709
Коэффициенты матрицы : BT.709

Аудио #1
Идентификатор : 2
Формат : AC-3
Формат/Информация : Audio Coding 3
Идентификатор кодека : A_AC3
Продолжительность : 1 ч. 31 м.
Вид битрейта : Постоянный
Битрейт : 640 Кбит/сек
Каналы : 6 каналов
Расположение каналов : Front: L C R, Side: L R, LFE
Частота : 48,0 КГц
Частота кадров : 31,250 кадров/сек (1536 SPF)
Битовая глубина : 16 бит
Метод сжатия : С потерями
Размер потока : 420 Мбайт (8%)
Заголовок : Дубляж
Язык : Russian
ServiceKind/Strin : Complete Main
Default : Да
Forced : Нет

Аудио #2
Идентификатор : 3
Формат : AC-3
Формат/Информация : Audio Coding 3
Идентификатор кодека : A_AC3
Продолжительность : 1 ч. 31 м.
Вид битрейта : Постоянный
Битрейт : 640 Кбит/сек
Каналы : 6 каналов
Расположение каналов : Front: L C R, Side: L R, LFE
Частота : 48,0 КГц
Частота кадров : 31,250 кадров/сек (1536 SPF)
Битовая глубина : 16 бит
Метод сжатия : С потерями
Размер потока : 420 Мбайт (8%)
Заголовок : Дубляж
Язык : Ukrainian
ServiceKind/Strin : Complete Main
Default : Нет
Forced : Нет

Аудио #3
Идентификатор : 4
Формат : AC-3
Формат/Информация : Audio Coding 3
Идентификатор кодека : A_AC3
Продолжительность : 1 ч. 31 м.
Вид битрейта : Постоянный
Битрейт : 640 Кбит/сек
Каналы : 6 каналов
Расположение каналов : Front: L C R, Side: L R, LFE
Частота : 48,0 КГц
Частота кадров : 31,250 кадров/сек (1536 SPF)
Битовая глубина : 16 бит
Метод сжатия : С потерями
Размер потока : 420 Мбайт (8%)
Язык : English
ServiceKind/Strin : Complete Main
Default : Нет
Forced : Нет

Текст #1
Идентификатор : 5
Формат : UTF-8
Идентификатор кодека : S_TEXT/UTF8
Идентификатор кодека/Информация : UTF-8 Plain Text
Продолжительность : 1 ч. 30 м.
Битрейт : 101 бит/сек
ElementCount : 1575
Размер потока : 67,0 Кбайт (0%)
Язык : Russian
Default : Нет
Forced : Нет

Текст #2
Идентификатор : 6
Формат : UTF-8
Идентификатор кодека : S_TEXT/UTF8
Идентификатор кодека/Информация : UTF-8 Plain Text
Продолжительность : 1 ч. 30 м.
Битрейт : 90 бит/сек
ElementCount : 1205
Размер потока : 59,8 Кбайт (0%)
Язык : Ukrainian
Default : Нет
Forced : Нет

Текст #3
Идентификатор : 7
Формат : UTF-8
Идентификатор кодека : S_TEXT/UTF8
Идентификатор кодека/Информация : UTF-8 Plain Text
Продолжительность : 1 ч. 24 м.
Битрейт : 67 бит/сек
ElementCount : 1200
Размер потока : 41,8 Кбайт (0%)
Язык : English
Default : Нет
Forced : Нет

Меню
00:00:00.000 : :1. Once Upon a Time...
00:03:19.616 : :2. "Belle"
00:08:24.838 : :3. Gaston Stops Belle
00:13:50.955 : :4. Maurice Comes Upon a Castle
00:17:34.887 : :5. Gaston Proposes to Belle
00:20:53.836 : :6. Belle Goes in Search of Maurice
00:25:34.241 : :7. Belle's New Home
00:27:04.748 : :8. "Gaston"
00:34:58.847 : :9. An Invitation to Dinner
00:38:28.848 : :10. "Be Our Guest"
00:43:50.795 : :11. The West Wing
00:49:25.629 : :12. Belle Tends to the Beast's Wounds
00:51:59.074 : :13. Something Special for Belle
00:53:59.736 : :14. "Something There"
00:57:26.652 : :15. "Human Again"
01:03:07.242 : :16. "Beauty and the Beast"
01:09:42.553 : :17. Gaston's Evil Plan in Action
01:11:28.451 : :18. "The Mob Song"
01:14:22.458 : :19. The Castle Under Attack
01:17:15.381 : :20. Gaston and the Beast
01:21:48.904 : :21. The Transformation
01:26:00.322 : :22. End Credits
Красавица и Чудовище 2: Волшебное рождество / Beauty and the Beast 2: The Enchanted Christmas (1997)
Год выхода: 1997
Страна / Студия: США, Канада / Disney Interactive Studios, Disney Interactive, Disney Television Animation
Жанр:мультфильм, мюзикл, фэнтези, мелодрама, семейный
Продолжительность: 01:10:43
Перевод: Дублированный, многоголосый закадровый

Режиссер: Эндрю Найт

Описание: Любовь Белль к чудовищу изменила все вокруг и теперь все заколдованные предметы в замке снова стали людьми, даже маленький Чип, некогда бывший всего лишь маленькой чашечкой. В свое первое Рождество, которое Чип встречает не как чашечка, а как мальчик, он просит маму рассказать, что же на самом деле случилось в замке прошлым Рождеством. Рождество — это время волшебства, но сильнее всего на свете оно в замке чудовища. Время тьмы и горя ушло навеки, но что способствовало этому?

Качество: BDRip 1080p
Видео: HEVC/H.265, 1920x1080, ~6451 Kbps
Аудио 1: AC3, 2 ch, 192 Kbps - Русский, дублированный (Невафильм)
Аудио 2: AC3, 6 ch, 448 Kbps - Русский, MVO
Аудио 3: AC3, 6 ch, 640 Kbps - Английский
Субтитры: Русские, английские (SDH)



Релиз от: Мичман


Mediainfo
====================================
x265 [info]: frame I: Avg QP:12.52 kb/s
x265 [info]: frame P: Avg QP:14.51 kb/s
x265 [info]: frame B: Avg QP:18.23 kb/s
====================================
Общее
Уникальный идентификатор : 303281417578276633501577064214370119255 (0xE429E059B85D70D8476296E42A72EE57)
Полное имя : R:Beauty and the BeastBeauty and the Beast 2 The Enchanted Christmas (1997) BDRip-HEVC 1080p.mkv
Формат : Matroska
Версия формата : Version 4 / Version 2
Размер файла : 3,82 Гбайт
Продолжительность : 1 ч. 10 м.
Общий поток : 7734 Кбит/сек
Название фильма : Beauty and the Beast 2: The Enchanted Christmas (1997)
Дата кодирования : UTC 2020-05-23 06:39:21
Программа кодирования : mkvmerge v43.0.0 ('The Quartermaster') 64-bit
Библиотека кодирования : libebml v1.3.10 + libmatroska v1.5.2
Обложка : Yes
Attachments : cover.jpg

Видео
Идентификатор : 1
Формат : HEVC
Формат/Информация : High Efficiency Video Coding
Профиль формата : Main [email protected]@High
Идентификатор кодека : V_MPEGH/ISO/HEVC
Продолжительность : 1 ч. 10 м.
Битрейт : 6451 Кбит/сек
Ширина : 1920 пикселей
Высота : 1080 пикселей
Соотношение сторон : 16:9
Режим частоты кадров : Постоянный
Частота кадров : 23,976 (23976/1000) кадра/сек
Частота кадров в оригинале : 23,976 (24000/1001) кадра/сек
Цветовое пространство : YUV
Субдискретизация насыщенности : 4:2:0
Битовая глубина : 10 бит
Бит/(Пиксели*Кадры) : 0.130
Размер потока : 3,19 Гбайт (83%)
Библиотека кодирования : x265 3.3+1-g554c887ac:[Windows][MSVC 1924][64 bit] 10bit
Настройки программы : cpuid=1111039 / frame-threads=3 / numa-pools=12 / wpp / no-pmode / no-pme / no-psnr / no-ssim / log-level=2 / input-csp=1 / input-res=1920x1080 / interlace=0 / total-frames=94454 / level-idc=41 / high-tier=1 / uhd-bd=0 / ref=5 / no-allow-non-conformance / no-repeat-headers / annexb / no-aud / no-hrd / info / hash=0 / no-temporal-layers / open-gop / min-keyint=23 / keyint=240 / gop-lookahead=0 / bframes=8 / b-adapt=2 / b-pyramid / bframe-bias=0 / rc-lookahead=60 / lookahead-slices=4 / scenecut=40 / hist-scenecut=0 / radl=0 / no-splice / no-intra-refresh / ctu=32 / min-cu-size=8 / rect / amp / max-tu-size=32 / tu-inter-depth=4 / tu-intra-depth=4 / limit-tu=1 / rdoq-level=2 / dynamic-rd=0.00 / no-ssim-rd / signhide / no-tskip / nr-intra=0 / nr-inter=0 / no-constrained-intra / no-strong-intra-smoothing / max-merge=4 / limit-refs=2 / limit-modes / me=3 / subme=7 / merange=57 / temporal-mvp / no-frame-dup / no-hme / weightp / weightb / no-analyze-src-pics / deblock=-3:-3 / no-sao / no-sao-non-deblock / rd=6 / selective-sao=0 / no-early-skip / no-rskip / no-fast-intra / no-tskip-fast / no-cu-lossless / no-b-intra / no-splitrd-skip / rdpenalty=0 / psy-rd=2.00 / psy-rdoq=1.00 / no-rd-refine / no-lossless / cbqpoffs=0 / crqpoffs=0 / rc=crf / crf=19.0 / qcomp=0.60 / qpstep=4 / stats-write=0 / stats-read=0 / vbv-maxrate=50000 / vbv-bufsize=50000 / vbv-init=0.9 / crf-max=0.0 / crf-min=0.0 / ipratio=1.40 / pbratio=1.30 / aq-mode=1 / aq-strength=1.00 / no-cutree / zone-count=0 / no-strict-cbr / qg-size=32 / no-rc-grain / qpmax=69 / qpmin=0 / no-const-vbv / sar=1 / overscan=0 / videoformat=5 / range=0 / colorprim=1 / transfer=1 / colormatrix=1 / chromaloc=0 / display-window=0 / cll=0,0 / min-luma=0 / max-luma=1023 / log2-max-poc-lsb=8 / vui-timing-info / vui-hrd-info / slices=1 / no-opt-qp-pps / no-opt-ref-list-length-pps / no-multi-pass-opt-rps / scenecut-bias=0.05 / hist-threshold=0.01 / no-opt-cu-delta-qp / no-aq-motion / no-hdr10 / no-hdr10-opt / no-dhdr10-opt / no-idr-recovery-sei / analysis-reuse-level=0 / analysis-save-reuse-level=0 / analysis-load-reuse-level=0 / scale-factor=0 / refine-intra=0 / refine-inter=0 / refine-mv=1 / refine-ctu-distortion=0 / no-limit-sao / ctu-info=0 / no-lowpass-dct / refine-analysis-type=0 / copy-pic=1 / max-ausize-factor=1.0 / no-dynamic-refine / no-single-sei / no-hevc-aq / no-svt / no-field / qp-adaptation-range=1.00 / no-scenecut-aware-qpconformance-window-offsets / right=0 / bottom=0
Default : Да
Forced : Нет
Цветовой диапазон : Limited
Основные цвета : BT.709
Характеристики трансфера : BT.709
Коэффициенты матрицы : BT.709

Аудио #1
Идентификатор : 2
Формат : AC-3
Формат/Информация : Audio Coding 3
Идентификатор кодека : A_AC3
Продолжительность : 1 ч. 10 м.
Вид битрейта : Постоянный
Битрейт : 192 Кбит/сек
Каналы : 2 канала
Расположение каналов : Front: L R
Частота : 48,0 КГц
Частота кадров : 31,250 кадров/сек (1536 SPF)
Битовая глубина : 16 бит
Метод сжатия : С потерями
Размер потока : 97,1 Мбайт (2%)
Заголовок : Дубляж | "Невафильм"
Язык : Russian
ServiceKind/Strin : Complete Main
Default : Да
Forced : Нет

Аудио #2
Идентификатор : 3
Формат : AC-3
Формат/Информация : Audio Coding 3
Идентификатор кодека : A_AC3
Продолжительность : 1 ч. 10 м.
Вид битрейта : Постоянный
Битрейт : 448 Кбит/сек
Каналы : 6 каналов
Расположение каналов : Front: L C R, Side: L R, LFE
Частота : 48,0 КГц
Частота кадров : 31,250 кадров/сек (1536 SPF)
Битовая глубина : 16 бит
Метод сжатия : С потерями
Размер потока : 227 Мбайт (6%)
Заголовок : Многоголосый закадровый
Язык : Russian
ServiceKind/Strin : Complete Main
Default : Нет
Forced : Нет

Аудио #3
Идентификатор : 4
Формат : AC-3
Формат/Информация : Audio Coding 3
Идентификатор кодека : A_AC3
Продолжительность : 1 ч. 10 м.
Вид битрейта : Постоянный
Битрейт : 640 Кбит/сек
Каналы : 6 каналов
Расположение каналов : Front: L C R, Side: L R, LFE
Частота : 48,0 КГц
Частота кадров : 31,250 кадров/сек (1536 SPF)
Битовая глубина : 16 бит
Метод сжатия : С потерями
Размер потока : 324 Мбайт (8%)
Язык : English
ServiceKind/Strin : Complete Main
Default : Нет
Forced : Нет

Текст #1
Идентификатор : 5
Формат : UTF-8
Идентификатор кодека : S_TEXT/UTF8
Идентификатор кодека/Информация : UTF-8 Plain Text
Продолжительность : 1 ч. 4 м.
Битрейт : 103 бит/сек
ElementCount : 869
Размер потока : 49,3 Кбайт (0%)
Язык : Russian
Default : Нет
Forced : Нет

Текст #2
Идентификатор : 6
Формат : UTF-8
Идентификатор кодека : S_TEXT/UTF8
Идентификатор кодека/Информация : UTF-8 Plain Text
Продолжительность : 1 ч. 5 м.
Битрейт : 70 бит/сек
ElementCount : 1175
Размер потока : 33,5 Кбайт (0%)
Заголовок : SDH
Язык : English
Default : Нет
Forced : Нет

Меню
00:00:00.000 : en:01. Opening Credits / Remembering The Past
00:04:25.306 : en:02. A Date To Skate
00:10:17.158 : en:03. Belle's Gift
00:14:17.523 : en:04. Planning For Christmas
00:23:21.608 : en:05. The Curse Of The Beast
00:26:11.236 : en:06. F Yule Log Wish
00:29:25.263 : en:07. The Beast's Dilemma
00:33:53.156 : en:08. A Perfect Tree
00:39:17.563 : en:09. Where's Belle?
00:45:54.418 : en:10. The Black Forest
00:51:39.596 : en:11. A Gift Of Hope Brings Revenge
01:03:30.765 : en:12. Christmas At Last / End Credits
 

Вложения

  • 24,2 KB Просмотры: 0
    Личеров 0
    Сидеров 0
    Файлов 2
    Объем 9,2 GB

Привет!

Мы группа людей которые решили помочь другим в решении их проблем, а так же пользователям с поиском самых свежих и качественных инфопродуктов. За 4 с небольшим месяца мы создали этот форум на который заходят ежедневно тысячи человек и посещаемость постоянно растёт. Мы создали панель лицензирования для защиты PHP скриптов от воровства и SEO панель для мониторинга наших сайтов и выбора верной стратегии их развития. Мы надеемся что то что мы создали пригодится Вам и возможно Вы поможете нам развиваться и совершенствоваться вместе с Вами.

Статистика форума

Темы
406.605
Сообщения
465.025
Пользователи
84.386
Новый пользователь
Hellloyy

Приложения форума для iOS и Android


У ркн там нет власти ;)
Приватные разговоры
Помощь Пользователи
    Вы не присоединились ни к одной комнате.