За последнюю неделю опубликовано 63 новых материалов.
Инструкция новичку Путеводитель по форуму Прокси для Telegram Показать подсказки , это бомба!

Скачать Красавчик Нельсон / Малявка Нельсон / Малыш Нельсон / Baby Face Nelson (1995) VHSRip | А бесплатно через торрент

  • Поучаствуй (в качестве покупателя) в любых пяти совместных покупках (кроме завершённых и "Моментальных") и получи группу "Новичок" навсегда -> ссылка на раздел
  • Получай до 480 рублей за каждого приглашенного пользователя!
    представляем Вам очередное расширение партнерской программы, подробности описаны тут -> ссылка
  • 90% материалов доступно к скачиванию после простой регистрации!
    Если же ты хочешь скачивать материалы без требования оставлять отзывы то получи группу "Новичок", 10 способов повышения описаны тут -> ссылка
  • К сожалению количество битых ссылок растет и мы уже не можем их оперативно восстанавливать поэтому просим помощи у каждого нашего пользователя.
    С сегодняшнего дня, за каждую восстановленную ссылку мы заплатим Вам.
    Подробнее тут -> ссылка
  • Перенесем твои заслуги с другого ресурса!
    Мы понимаем как сложно прокачивать аккаунты на форумах, вроде раскачал аккаунт, а тут появляется ресурс в 100 раз круче но тоже с системой прокачки и снова качать аккаунт...
    Предлагаем вам перенести Ваши заслуги на другом подобном ресурсе к нам.
    Подробности описаны тут -> ссылка
  • Вы можете получать по 2.5% с каждой покупки и продажи на маркете! Подробности в теме Партнёрская программа
Если Вы не хотите скачивать, Вы всегда можетепосмотретьонлайн, просто нажмите кнопку ниже :

Открыть плеер

Torrent_Bot

Торрент-Бот
Бот форума
4 Окт 2016
92
160
20


Информация о фильме
Название: Красавчик Нельсон (Малявка Нельсон, Малыш Нельсон)
Оригинальное название: Baby Face Nelson)
Год выхода: 1995
Жанр: Боевик, драма, криминал
Режиссер: Скотт Ливай
В ролях: С. Томас Хауэлл, Лиза Зейн, Даг Уэрт, Ф. Мюррэй Абрахам, Мартин Коув, Дэвид Пэрри, Клинт Ховард, Майкл Малота, Кевин Шеридан, Бен Гэнгер

О фильме:
Чикаго, 20-е годы, мафия Аль Капоне. Кровь льется рекой, город плотным кольцом охватил мрак и стиснул свои железные объятья. Сквозь тьму пробиваются прожекторы ФБР, что будет дальше? Кровавые оргии в свете неоновых фонарей.



Страна: США
Студия: Concorde-New Horizons
Продолжительность: 01:27:02
Перевод : Авторский (одноголосый) Сергей Визгунов

Файл
Качество: VHSRip
Видео: XviD, 1200 Кбит/с, 640x480
Аудио: Русский (MP3, 2 ch, 128 Кбит/с) Визгунов
Субтитры: немецкие (не отключаемые)

MI
General
Complete name : E:РаздачиBaby Face Nelson (1995).avi
Format : AVI
Format/Info : Audio Video Interleave
File size : 835 MiB
Duration : 1 h 27 min
Overall bit rate : 1 340 kb/s

Video
ID : 0
Format : MPEG-4 Visual
Format profile : [email protected]
Format settings, BVOP : No
Format settings, QPel : No
Format settings, GMC : No warppoints
Format settings, Matrix : Default (H.263)
Codec ID : XVID
Codec ID/Hint : XviD
Duration : 1 h 27 min
Bit rate : 1 200 kb/s
Width : 640 pixels
Height : 480 pixels
Display aspect ratio : 4:3
Frame rate : 25.000 FPS
Color space : YUV
Chroma subsampling : 4:2:0
Bit depth : 8 bits
Scan type : Progressive
Compression mode : Lossy
Bits/(Pixel*Frame) : 0.156
Stream size : 747 MiB (90%)
Writing library : Magic0432

Audio
ID : 1
Format : MPEG Audio
Format version : Version 1
Format profile : Layer 3
Format settings : Joint stereo / MS Stereo
Codec ID : 55
Codec ID/Hint : MP3
Duration : 1 h 27 min
Bit rate mode : Constant
Bit rate : 128 kb/s
Channel(s) : 2 channels
Sampling rate : 44.1 kHz
Compression mode : Lossy
Stream size : 79.7 MiB (10%)
Alignment : Aligned on interleaves
Interleave, duration : 26 ms (0.65 video frame)
Скриншоты

 

Вложения

  • 17,1 KB Просмотры: 0
    Личеров 0
    Сидеров 0
    Файлов 1
    Объем 834,6 MB

Привет!

Мы группа людей которые решили помочь другим в решении их проблем, а так же пользователям с поиском самых свежих и качественных инфопродуктов. За 4 с небольшим месяца мы создали этот форум на который заходят ежедневно тысячи человек и посещаемость постоянно растёт. Мы создали панель лицензирования для защиты PHP скриптов от воровства и SEO панель для мониторинга наших сайтов и выбора верной стратегии их развития. Мы надеемся что то что мы создали пригодится Вам и возможно Вы поможете нам развиваться и совершенствоваться вместе с Вами.

Статистика форума

Темы
406.656
Сообщения
465.107
Пользователи
84.677
Новый пользователь
maxim_nik33

Приложения форума для iOS и Android


У ркн там нет власти ;)
Приватные разговоры
Помощь Пользователи
    Вы не присоединились ни к одной комнате.