За последнюю неделю опубликовано 57 новых материалов.
Инструкция новичку Путеводитель по форуму Прокси для Telegram Показать подсказки , это бомба!

Скачать Короткометражки Marvel / Marvel One-Shots (2011-2014) BDRip | КПК | L бесплатно через торрент

  • Поучаствуй (в качестве покупателя) в любых пяти совместных покупках (кроме завершённых и "Моментальных") и получи группу "Новичок" навсегда -> ссылка на раздел
  • Получай до 480 рублей за каждого приглашенного пользователя!
    представляем Вам очередное расширение партнерской программы, подробности описаны тут -> ссылка
  • 90% материалов доступно к скачиванию после простой регистрации!
    Если же ты хочешь скачивать материалы без требования оставлять отзывы то получи группу "Новичок", 10 способов повышения описаны тут -> ссылка
  • К сожалению количество битых ссылок растет и мы уже не можем их оперативно восстанавливать поэтому просим помощи у каждого нашего пользователя.
    С сегодняшнего дня, за каждую восстановленную ссылку мы заплатим Вам.
    Подробнее тут -> ссылка
  • Перенесем твои заслуги с другого ресурса!
    Мы понимаем как сложно прокачивать аккаунты на форумах, вроде раскачал аккаунт, а тут появляется ресурс в 100 раз круче но тоже с системой прокачки и снова качать аккаунт...
    Предлагаем вам перенести Ваши заслуги на другом подобном ресурсе к нам.
    Подробности описаны тут -> ссылка
  • Вы можете получать по 2.5% с каждой покупки и продажи на маркете! Подробности в теме Партнёрская программа
Если Вы не хотите скачивать, Вы всегда можетепосмотретьонлайн, просто нажмите кнопку ниже :

Открыть плеер

Torrent_Bot

Торрент-Бот
Бот форума
4 Окт 2016
92
160
20



Информация о фильме
Название: Короткометражки Marvel
Оригинальное название: Marvel One-Shots
Год выхода: 2011-2014
Жанр: комикс, боевик, фантастика


Marvel One-Shots — серия короткометражных фильмов, выпускаемых компанией Marvel Studios в рамках кинематографической вселенной Marvel вместе с DVD и Blu-ray-релизами полнометражных фильмов. Главными героями стали агент секретной службы Щ.И.Т. Фил Колсон и его коллеги, а события, описываемые в роликах, рассказывают о буднях агентов и сюжетно связаны с одним из фильмов кроссовера.
Основаны на комиксах Стэна Ли.



Консультант / The Consultant (2011)
Информация о фильме
Название: Короткометражка Marvel: Консультант
Оригинальное название: Marvel One-Shot: The Consultant
Год выхода: 2011
Жанр: комикс, боевик, фантастика
Режиссер: Лейтум
В ролях: Кларк Грегг, Максимилианно Эрнандез, Дебора Нокс, Роберт Дауни мл., Уильям Хёрт

О фильме:
Короткометражный фильм Marvel Studios расскажет о встрече в Пуэнте-Антигуо, Нью-Мексико. Агент Фил Колсон общается в ресторане с агентом Джаспером Ситуэллом, и сообщает ему о том, что по требованию Совета мировой безопасности в команду должен вступить Эмиль Блонски. Директор Фьюри никак не может игнорировать этот требование. Задача агентов послать своего человека к генералу Россу и убедить его передать Блонски под охрану Щ.И.Т. «Консультант» вышел с официальным релизом фильма «Тор».



Страна: США
Студия: Marvel Studios
Продолжительность: 00:03:57
Перевод: Любительский (многоголосый закадровый) | Несмертельное оружие

Файл
Формат: MP4
Качество: BDRip 360p (исх. BDRemux 1080p) *
Видео: AVC, 640x272 (2.35:1), 23.976 fps, 500 kbps
Аудио: AAC LC, 48.0 KHz, 2 ch, 128 kbps
Субтитры: Нет

log x264 / MediaInfo
x264 [info]: frame I:57 Avg QP:10.04 size: 31452
x264 [info]: frame P:1255 Avg QP:14.23 size: 6539
x264 [info]: frame B:4372 Avg QP:18.98 size: 1039
x264 [info]: consecutive B-frames: 1.5% 8.6% 9.3% 21.6% 14.4% 20.5% 5.8% 5.1% 1.3% 1.4% 1.5% 0.4% 0.5% 0.5% 1.6% 0.0% 6.0%

General
Complete name : Marvel.One-Shots (2011-2014)/01.Marvel.One-Shot.The.Consultant.2011.MVO.BDRip.mp4
Format : MPEG-4
Format profile : Base Media
Codec ID : isom (isom)
File size : 17.6 MiB
Duration : 3 min 57 s
Overall bit rate mode : Variable
Overall bit rate : 622 kb/s
Encoded date : UTC 2020-08-08 10:07:18
Tagged date : UTC 2020-08-08 10:07:18

Video
ID : 1
Format : AVC
Format/Info : Advanced Video Codec
Format profile : [email protected]
Format settings : CABAC / 12 Ref Frames
Format settings, CABAC : Yes
Format settings, RefFrames : 12 frames
Codec ID : avc1
Codec ID/Info : Advanced Video Coding
Duration : 3 min 57 s
Bit rate : 500 kb/s
Maximum bit rate : 3 254 kb/s
Width : 640 pixels
Height : 272 pixels
Display aspect ratio : 2.35:1
Original display aspect ratio : 2.35:1
Frame rate mode : Constant
Frame rate : 23.976 (24000/1001) FPS
Color space : YUV
Chroma subsampling : 4:2:0
Bit depth : 8 bits
Scan type : Progressive
Bits/(Pixel*Frame) : 0.120
Stream size : 13.9 MiB (79%)
Title : The Consultant
Writing library : x264 core 133 r2334 a3ac64b
Encoding settings : cabac=1 / ref=12 / deblock=1:-3:-3 / analyse=0x3:0x113 / me=umh / subme=10 / psy=1 / psy_rd=1.00:0.00 / mixed_ref=1 / me_range=32 / chroma_me=1 / trellis=2 / 8x8dct=1 / cqm=0 / deadzone=21,11 / fast_pskip=0 / chroma_qp_offset=-2 / threads=6 / lookahead_threads=1 / sliced_threads=0 / nr=0 / decimate=0 / interlaced=0 / bluray_compat=0 / constrained_intra=0 / bframes=16 / b_pyramid=2 / b_adapt=2 / b_bias=0 / direct=3 / weightb=1 / open_gop=0 / weightp=2 / keyint=250 / keyint_min=23 / scenecut=40 / intra_refresh=0 / rc_lookahead=60 / rc=2pass / mbtree=1 / bitrate=500 / ratetol=1.0 / qcomp=0.60 / qpmin=0 / qpmax=69 / qpstep=4 / cplxblur=20.0 / qblur=0.5 / ip_ratio=1.40 / aq=1:1.00
Language : English
Encoded date : UTC 2020-08-09 01:05:34
Tagged date : UTC 2020-08-08 10:07:20
Codec configuration box : avcC

Audio
ID : 2
Format : AAC LC
Format/Info : Advanced Audio Codec Low Complexity
Codec ID : mp4a-40-2
Duration : 3 min 57 s
Bit rate mode : Variable
Bit rate : 128 kb/s
Maximum bit rate : 134 kb/s
Channel(s) : 2 channels
Channel layout : L R
Sampling rate : 48.0 kHz
Frame rate : 46.875 FPS (1024 SPF)
Compression mode : Lossy
Stream size : 3.62 MiB (21%)
Title : MVO - Nesmertelnoe oruzhie
Language : Russian
Encoded date : UTC 2020-08-08 10:07:19
Tagged date : UTC 2020-08-08 10:07:20
Скриншоты


Забавный случай на пути к молоту Тора / A Funny Thing Happened on the Way to Thor's Hammer (2011)
Информация о фильме
Название: Короткометражка Marvel: Забавный случай на пути к молоту Тора
Оригинальное название: Marvel One-Shot: A Funny Thing Happened on the Way to Thor's Hammer
Год выхода: 2011
Жанр: комикс, боевик, фантастика
Режиссер: Лейтум
В ролях: Кларк Грегг, Зэк Хадсон, Джессика Мануэль, Джефф Прюэтт

О фильме:
Короткометражный фильм Marvel Studios повествует о том, что случилось с агентом Филом Колсоном, когда он поехал в Пуэнте-Антигуо, Нью-Мексико осматривать место падения Мьёльнира, молота бога-громовержца Тора.
«Забавный случай по дороге к молоту Тора» вышел с официальным релизом фильма «Первый мститель».



Страна: США
Студия: Marvel Studios
Продолжительность: 00:04:03
Перевод: Любительский (многоголосый закадровый) | Несмертельное оружие

Файл
Формат: MP4
Качество: BDRip 360p (исх. BDRemux 1080p) *
Видео: AVC, 640x272 (2.35:1), 23.976 fps, 500 kbps
Аудио: AAC LC, 48.0 KHz, 2 ch, 128 kbps
Субтитры: Нет

log x264 / MediaInfo
x264 [info]: frame I:65 Avg QP:11.19 size: 40004
x264 [info]: frame P:1136 Avg QP:14.23 size: 7056
x264 [info]: frame B:4636 Avg QP:15.06 size: 928
x264 [info]: consecutive B-frames: 2.3% 3.8% 5.9% 20.8% 11.7% 23.8% 3.8% 3.7% 2.2% 6.5% 1.9% 1.9% 1.3% 0.2% 0.8% 2.2% 7.3%

General
Complete name : Marvel.One-Shots (2011-2014)/02.Marvel.One-Shot.A.Funny.Thing.Happened.on.the.Way.to.Thor's.Hammer.2011.MVO.BDRip.mp4
Format : MPEG-4
Format profile : Base Media
Codec ID : isom (isom)
File size : 18.0 MiB
Duration : 4 min 3 s
Overall bit rate mode : Variable
Overall bit rate : 622 kb/s
Encoded date : UTC 2020-08-08 10:02:54
Tagged date : UTC 2020-08-08 10:02:54

Video
ID : 1
Format : AVC
Format/Info : Advanced Video Codec
Format profile : [email protected]
Format settings : CABAC / 12 Ref Frames
Format settings, CABAC : Yes
Format settings, RefFrames : 12 frames
Codec ID : avc1
Codec ID/Info : Advanced Video Coding
Duration : 4 min 3 s
Bit rate : 500 kb/s
Maximum bit rate : 2 390 kb/s
Width : 640 pixels
Height : 272 pixels
Display aspect ratio : 2.35:1
Original display aspect ratio : 2.35:1
Frame rate mode : Constant
Frame rate : 23.976 (24000/1001) FPS
Color space : YUV
Chroma subsampling : 4:2:0
Bit depth : 8 bits
Scan type : Progressive
Bits/(Pixel*Frame) : 0.120
Stream size : 14.2 MiB (79%)
Title : A Funny Thing Happened on the Way to Thor`s Hammer
Writing library : x264 core 133 r2334 a3ac64b
Encoding settings : cabac=1 / ref=12 / deblock=1:-3:-3 / analyse=0x3:0x113 / me=umh / subme=10 / psy=1 / psy_rd=1.00:0.00 / mixed_ref=1 / me_range=32 / chroma_me=1 / trellis=2 / 8x8dct=1 / cqm=0 / deadzone=21,11 / fast_pskip=0 / chroma_qp_offset=-2 / threads=6 / lookahead_threads=1 / sliced_threads=0 / nr=0 / decimate=0 / interlaced=0 / bluray_compat=0 / constrained_intra=0 / bframes=16 / b_pyramid=2 / b_adapt=2 / b_bias=0 / direct=3 / weightb=1 / open_gop=0 / weightp=2 / keyint=250 / keyint_min=23 / scenecut=40 / intra_refresh=0 / rc_lookahead=60 / rc=2pass / mbtree=1 / bitrate=500 / ratetol=1.0 / qcomp=0.60 / qpmin=0 / qpmax=69 / qpstep=4 / cplxblur=20.0 / qblur=0.5 / ip_ratio=1.40 / aq=1:1.00
Language : English
Encoded date : UTC 2020-08-08 23:14:56
Tagged date : UTC 2020-08-08 10:02:56
Codec configuration box : avcC

Audio
ID : 2
Format : AAC LC
Format/Info : Advanced Audio Codec Low Complexity
Codec ID : mp4a-40-2
Duration : 4 min 3 s
Bit rate mode : Variable
Bit rate : 128 kb/s
Maximum bit rate : 134 kb/s
Channel(s) : 2 channels
Channel layout : L R
Sampling rate : 48.0 kHz
Frame rate : 46.875 FPS (1024 SPF)
Compression mode : Lossy
Stream size : 3.72 MiB (21%)
Title : MVO - Nesmertelnoe oruzhie
Language : Russian
Encoded date : UTC 2020-08-08 10:02:56
Tagged date : UTC 2020-08-08 10:02:56
Скриншоты


Объект 47 / Item 47 (2012)
Информация о фильме
Название: Короткометражка Marvel: Объект 47
Оригинальное название: Marvel One-Shot: Item 47
Год выхода: 2012
Жанр: комикс, боевик, фантастика
Режиссер: Луис Д’Эспозито
В ролях: Джесси Бретфорд, Лиззи Каплан, Максимилиано Эрнандес, Титус Уилливер

О фильме:
Короткометражный фильм Marvel Studios расскажет об обратной стороне событий показанных в фильме «Мстители». Клэр и Бенни - молодая нью-йоркская пара, в руки которой попало импульсное оружие пришельцев Читаури. Но ребята решают использовать находку вовсе не на благое дело. Во всеобщем хаосе они взялись грабить банки. Остановить современных Бонни и Клайда посланы два агента организации Щ.И.Т., один из которых Джаспер Ситуэлл. «Объект 47» вышел с официальным релизом фильма «Мстители».



Страна: США
Студия: Marvel Studios
Продолжительность: 00:11:20
Перевод: Любительский (многоголосый закадровый) | Несмертельное оружие

Файл
Формат: MP4
Качество: BDRip 360p (исх. BDRemux 1080p) *
Видео: AVC, 640x266 (2.40:1), 23.976 fps, 600 kbps
Аудио: AAC LC, 48.0 KHz, 2 ch, 128 kbps
Субтитры: Нет

log x264 / MediaInfo
x264 [info]: frame I:139 Avg QP:14.29 size: 24021
x264 [info]: frame P:4140 Avg QP:18.12 size: 6351
x264 [info]: frame B:12044 Avg QP:20.62 size: 1781
x264 [info]: consecutive B-frames: 3.5% 4.4% 13.0% 34.2% 16.3% 20.4% 3.1% 1.7% 0.3% 0.2% 1.0% 0.3% 0.2% 1.2%

General
Complete name : Marvel.One-Shots (2011-2014)/03.Marvel.One-Shot.Item.47.2012.MVO.BDRip.mp4
Format : MPEG-4
Format profile : Base Media
Codec ID : isom (isom)
File size : 59.4 MiB
Duration : 11 min 20 s
Overall bit rate mode : Variable
Overall bit rate : 732 kb/s
Encoded date : UTC 2020-08-08 10:06:02
Tagged date : UTC 2020-08-08 10:06:02

Video
ID : 1
Format : AVC
Format/Info : Advanced Video Codec
Format profile : [email protected]
Format settings : CABAC / 14 Ref Frames
Format settings, CABAC : Yes
Format settings, RefFrames : 14 frames
Codec ID : avc1
Codec ID/Info : Advanced Video Coding
Duration : 11 min 20 s
Bit rate : 600 kb/s
Maximum bit rate : 2 570 kb/s
Width : 640 pixels
Height : 266 pixels
Display aspect ratio : 2.40:1
Original display aspect ratio : 2.40:1
Frame rate mode : Constant
Frame rate : 23.976 (24000/1001) FPS
Color space : YUV
Chroma subsampling : 4:2:0
Bit depth : 8 bits
Scan type : Progressive
Bits/(Pixel*Frame) : 0.147
Stream size : 48.7 MiB (82%)
Title : Item 47
Writing library : x264 core 133 r2334 a3ac64b
Encoding settings : cabac=1 / ref=14 / deblock=1:-3:-2 / analyse=0x3:0x113 / me=umh / subme=10 / psy=1 / psy_rd=1.00:0.00 / mixed_ref=1 / me_range=32 / chroma_me=1 / trellis=2 / 8x8dct=1 / cqm=0 / deadzone=21,11 / fast_pskip=0 / chroma_qp_offset=-2 / threads=6 / lookahead_threads=1 / sliced_threads=0 / nr=0 / decimate=0 / interlaced=0 / bluray_compat=0 / constrained_intra=0 / bframes=13 / b_pyramid=2 / b_adapt=2 / b_bias=0 / direct=3 / weightb=1 / open_gop=0 / weightp=2 / keyint=250 / keyint_min=23 / scenecut=40 / intra_refresh=0 / rc=2pass / mbtree=0 / bitrate=600 / ratetol=1.0 / qcomp=0.65 / qpmin=0 / qpmax=69 / qpstep=4 / cplxblur=20.0 / qblur=0.5 / ip_ratio=1.40 / pb_ratio=1.30 / aq=1:1.00
Language : English
Encoded date : UTC 2020-08-09 09:28:39
Tagged date : UTC 2020-08-08 10:06:10
Codec configuration box : avcC

Audio
ID : 2
Format : AAC LC
Format/Info : Advanced Audio Codec Low Complexity
Codec ID : mp4a-40-2
Duration : 11 min 20 s
Bit rate mode : Variable
Bit rate : 128 kb/s
Maximum bit rate : 134 kb/s
Channel(s) : 2 channels
Channel layout : L R
Sampling rate : 48.0 kHz
Frame rate : 46.875 FPS (1024 SPF)
Compression mode : Lossy
Stream size : 10.4 MiB (17%)
Title : MVO - Nesmertelnoe oruzhie
Language : Russian
Encoded date : UTC 2020-08-08 10:06:08
Tagged date : UTC 2020-08-08 10:06:10
Скриншоты


Агент Картер / Agent Carter (2013)
Информация о фильме
Название: Короткометражка Marvel: Агент Картер
Оригинальное название: Marvel One-Shot: Agent Carter
Год выхода: 2013
Жанр: комикс, боевик, фантастика
Режиссер: Луис Д’Эспозито
В ролях: Хейли Этвелл, Брэдли Уитфорд, Доминик Купер, Тим Тробек, Джон Баринхолц, Энтони Молинари, Джесс Кинг, Марк Аарон Вагнер, Дэвид Хатчинсон, Джейкоб МакКафферти, Тим Ситарц, Линдси Горт, Сара Шрайбер, Нил МакДонаф

О фильме:
Короткометражный фильм Marvel Studios расскажет о дальнейшей жизни Агента Картер спустя год после событий показанных в ленте Джо Джонстона «Первый мститель». Пегги Картер работает агентом в организации стратегического научного резерва (СНР), которая также является предшественницей Щ.И.Т.а и ставит перед собой задачи остановить плохих парней из организации Зодиак. На рабочем месте Пегги приходится нелегко. После событий Второй мировой войны, начальство считает её бесполезной и не дает ей ни одного задания. Однажды задержавшись на работе, Пегги случайно перехватывает оперативную наводку о месте положения Зодиака. Не раздумывая, она сразу решает взяться за это дело в одиночку и доказать тем самым всем, что она может ничем не уступать рядовому агенту-мужчине.
«Агент Картер» вышел с официальным релизом фильма «Железный человек 3».



Страна: США
Студия: Marvel Studios
Продолжительность: 00:15:29
Перевод: Любительский (многоголосый закадровый) | Несмертельное оружие

Файл
Формат: MP4
Качество: BDRip 360p (исх. BDRemux 1080p) *
Видео: AVC, 640x266 (2.40:1), 23.976 fps, 600 kbps
Аудио: AAC LC, 48.0 KHz, 2 ch, 128 kbps
Субтитры: Нет

log x264 / MediaInfo
x264 [info]: frame I:193 Avg QP:13.22 size: 28355
x264 [info]: frame P:5122 Avg QP:16.94 size: 6740
x264 [info]: frame B:16970 Avg QP:18.69 size: 1747
x264 [info]: consecutive B-frames: 2.5% 5.5% 9.6% 22.1% 18.3% 26.9% 5.0% 3.8% 1.6% 0.6% 0.7% 0.8% 0.4% 0.1% 0.5% 1.7%

General
Complete name : Marvel.One-Shots (2011-2014)/04.Marvel.One-Shot.Agent.Carter.2013.MVO.BDRip.mp4
Format : MPEG-4
Format profile : Base Media
Codec ID : isom (isom)
File size : 81.0 MiB
Duration : 15 min 29 s
Overall bit rate mode : Variable
Overall bit rate : 731 kb/s
Encoded date : UTC 2020-08-08 10:04:42
Tagged date : UTC 2020-08-08 10:04:42

Video
ID : 1
Format : AVC
Format/Info : Advanced Video Codec
Format profile : [email protected]
Format settings : CABAC / 13 Ref Frames
Format settings, CABAC : Yes
Format settings, RefFrames : 13 frames
Codec ID : avc1
Codec ID/Info : Advanced Video Coding
Duration : 15 min 29 s
Bit rate : 600 kb/s
Maximum bit rate : 2 257 kb/s
Width : 640 pixels
Height : 266 pixels
Display aspect ratio : 2.40:1
Original display aspect ratio : 2.40:1
Frame rate mode : Constant
Frame rate : 23.976 (24000/1001) FPS
Color space : YUV
Chroma subsampling : 4:2:0
Bit depth : 8 bits
Scan type : Progressive
Bits/(Pixel*Frame) : 0.147
Stream size : 66.4 MiB (82%)
Title : Agent Carter
Writing library : x264 core 133 r2334 a3ac64b
Encoding settings : cabac=1 / ref=13 / deblock=1:-3:-3 / analyse=0x3:0x113 / me=umh / subme=10 / psy=1 / psy_rd=1.00:0.02 / mixed_ref=1 / me_range=32 / chroma_me=1 / trellis=2 / 8x8dct=1 / cqm=0 / deadzone=21,11 / fast_pskip=0 / chroma_qp_offset=-3 / threads=6 / lookahead_threads=1 / sliced_threads=0 / nr=0 / decimate=0 / interlaced=0 / bluray_compat=0 / constrained_intra=0 / bframes=15 / b_pyramid=2 / b_adapt=2 / b_bias=0 / direct=3 / weightb=1 / open_gop=0 / weightp=2 / keyint=250 / keyint_min=23 / scenecut=40 / intra_refresh=0 / rc=2pass / mbtree=0 / bitrate=600 / ratetol=1.0 / qcomp=0.60 / qpmin=0 / qpmax=69 / qpstep=4 / cplxblur=20.0 / qblur=0.5 / ip_ratio=1.40 / pb_ratio=1.30 / aq=1:1.00
Language : English
Encoded date : UTC 2020-08-09 08:41:46
Tagged date : UTC 2020-08-08 10:04:51
Codec configuration box : avcC

Audio
ID : 2
Format : AAC LC
Format/Info : Advanced Audio Codec Low Complexity
Codec ID : mp4a-40-2
Duration : 15 min 29 s
Bit rate mode : Variable
Bit rate : 128 kb/s
Maximum bit rate : 134 kb/s
Channel(s) : 2 channels
Channel layout : L R
Sampling rate : 48.0 kHz
Frame rate : 46.875 FPS (1024 SPF)
Compression mode : Lossy
Stream size : 14.2 MiB (18%)
Title : MVO - Nesmertelnoe oruzhie
Language : Russian
Encoded date : UTC 2020-08-08 10:04:49
Tagged date : UTC 2020-08-08 10:04:51
Скриншоты


Да здравствует король / All Hail the King (2014)
Информация о фильме
Название: Короткометражка Marvel: Да здравствует король
Оригинальное название: Marvel One-Shot: All Hail the King
Год выхода: 2014
Жанр: комикс, боевик, фантастика
Режиссер: Дрю Пирс
В ролях: Бен Кингсли, Скут МакНэйри, Лестер Спейт, Сэм Рокуэлл, Мэтт Джералд, Аллен Мальдонадо, Кристал Манки, Роб С. Грэй, Стив Хуан, Маркус Нативидад, Эдди Дж. Рангель

О фильме:
Короткометражный фильм Marvel Studios расскажет о дальнейшей судьбе Тревора Слэттери после событий фильма «Железный человек 3». Тревор Слэттери отбывает своё заключение в тюрьме строгого режима «Seagate». К счастью для него, образ террориста по имени Мандарин - принес ему большую известность и защиту даже за решеткой, вследствие чего, актер с удовольствием согласился дать интервью режиссеру-документалисту Джексону Норрису. Для Норриса это последний шанс зайти дальше, чем ложь и отговорки, столкнуть Слэттери с элементами его собственного прошлого и добраться до правды. Потому, что всем нужно выяснить раз и навсегда: кто такой Тревор Слэттери?
«Да здравствует король» вышел с официальным релизом фильма «Тор: Царство тьмы».



Страна: США
Студия: Marvel Studios
Продолжительность: 00:13:51
Перевод: Любительский (многоголосый закадровый) | Несмертельное оружие

Файл
Формат: MP4
Качество: BDRip 360p (исх. BDRemux 1080p) *
Видео: AVC, 640x266 (2.40:1), 23.976 fps, 600 kbps
Аудио: AAC LC, 48.0 KHz, 2 ch, 128 kbps
Субтитры: Русские (forced)

log x264 / MediaInfo
x264 [info]: frame I:175 Avg QP:13.95 size: 26421
x264 [info]: frame P:4783 Avg QP:17.87 size: 6521
x264 [info]: frame B:14986 Avg QP:20.03 size: 1778
x264 [info]: consecutive B-frames: 3.4% 3.7% 11.8% 26.2% 19.0% 21.3% 5.7% 4.1% 1.4% 0.6% 0.7% 0.9% 0.5% 0.1% 0.6%

General
Complete name : Marvel.One-Shots (2011-2014)/05.Marvel.One-Shot.All.Hail.the.King.2014.MVO.BDRip.mp4
Format : MPEG-4
Format profile : Base Media
Codec ID : isom (isom)
File size : 72.6 MiB
Duration : 13 min 51 s
Overall bit rate mode : Variable
Overall bit rate : 732 kb/s
Encoded date : UTC 2020-08-08 09:58:30
Tagged date : UTC 2020-08-08 09:58:30
Writing application : Yamb 2.1.0.0 [http://yamb.unite-video.com]

Video
ID : 1
Format : AVC
Format/Info : Advanced Video Codec
Format profile : [email protected]
Format settings : CABAC / 14 Ref Frames
Format settings, CABAC : Yes
Format settings, RefFrames : 14 frames
Codec ID : avc1
Codec ID/Info : Advanced Video Coding
Duration : 13 min 51 s
Bit rate : 600 kb/s
Maximum bit rate : 2 881 kb/s
Width : 640 pixels
Height : 266 pixels
Display aspect ratio : 2.40:1
Original display aspect ratio : 2.40:1
Frame rate mode : Constant
Frame rate : 23.976 (24000/1001) FPS
Color space : YUV
Chroma subsampling : 4:2:0
Bit depth : 8 bits
Scan type : Progressive
Bits/(Pixel*Frame) : 0.147
Stream size : 59.6 MiB (82%)
Title : All Hail the King
Writing library : x264 core 133 r2334 a3ac64b
Encoding settings : cabac=1 / ref=14 / deblock=1:-3:-3 / analyse=0x3:0x113 / me=umh / subme=10 / psy=1 / psy_rd=1.00:0.05 / mixed_ref=1 / me_range=32 / chroma_me=1 / trellis=2 / 8x8dct=1 / cqm=0 / deadzone=21,11 / fast_pskip=0 / chroma_qp_offset=-3 / threads=6 / lookahead_threads=1 / sliced_threads=0 / nr=0 / decimate=0 / interlaced=0 / bluray_compat=0 / constrained_intra=0 / bframes=14 / b_pyramid=2 / b_adapt=2 / b_bias=0 / direct=3 / weightb=1 / open_gop=0 / weightp=2 / keyint=250 / keyint_min=23 / scenecut=40 / intra_refresh=0 / rc=2pass / mbtree=0 / bitrate=600 / ratetol=1.0 / qcomp=0.65 / qpmin=0 / qpmax=69 / qpstep=4 / cplxblur=20.0 / qblur=0.5 / ip_ratio=1.40 / pb_ratio=1.30 / aq=1:1.00
Language : English
Encoded date : UTC 2020-08-09 07:40:20
Tagged date : UTC 2020-08-08 09:58:41
Codec configuration box : avcC

Audio
ID : 2
Format : AAC LC
Format/Info : Advanced Audio Codec Low Complexity
Codec ID : mp4a-40-2
Duration : 13 min 51 s
Bit rate mode : Variable
Bit rate : 128 kb/s
Maximum bit rate : 134 kb/s
Channel(s) : 2 channels
Channel layout : L R
Sampling rate : 48.0 kHz
Frame rate : 46.875 FPS (1024 SPF)
Compression mode : Lossy
Stream size : 12.7 MiB (17%)
Title : MVO - Nesmertelnoe oruzhie
Language : Russian
Encoded date : UTC 2020-08-08 09:58:39
Tagged date : UTC 2020-08-08 09:58:41

Text
ID : 3
Format : Timed Text
Codec ID : tx3g
Duration : 35 s 800 ms
Duration_FirstFrame : 26 s 800 ms
Bit rate mode : Variable
Bit rate : 31 b/s
Stream size : 140 Bytes (0%)
Title : forced
Language : Russian
Forced : No
Encoded date : UTC 2020-08-08 09:58:41
Tagged date : UTC 2020-08-08 09:58:41
Скриншоты


* за исходный материал спасибо antipigo, optik.1557


 

Вложения

  • 20,9 KB Просмотры: 0
    Личеров 0
    Сидеров 0
    Файлов 5
    Объем 248,7 MB

Привет!

Мы группа людей которые решили помочь другим в решении их проблем, а так же пользователям с поиском самых свежих и качественных инфопродуктов. За 4 с небольшим месяца мы создали этот форум на который заходят ежедневно тысячи человек и посещаемость постоянно растёт. Мы создали панель лицензирования для защиты PHP скриптов от воровства и SEO панель для мониторинга наших сайтов и выбора верной стратегии их развития. Мы надеемся что то что мы создали пригодится Вам и возможно Вы поможете нам развиваться и совершенствоваться вместе с Вами.

Статистика форума

Темы
406.651
Сообщения
465.096
Пользователи
84.642
Новый пользователь
margaret5910

Приложения форума для iOS и Android


У ркн там нет власти ;)
Приватные разговоры
Помощь Пользователи
    Вы не присоединились ни к одной комнате.