За последнюю неделю опубликовано 65 новых материалов.
Инструкция новичку Путеводитель по форуму Прокси для Telegram Показать подсказки , это бомба!

Скачать Короткометражка Marvel: Образец 47 / Marvel One-Shot: Item 47 (2012) BDRemux 1080p | D | Flarrow Films бесплатно через торрент

  • Поучаствуй (в качестве покупателя) в любых пяти совместных покупках (кроме завершённых и "Моментальных") и получи группу "Новичок" навсегда -> ссылка на раздел
  • Получай до 480 рублей за каждого приглашенного пользователя!
    представляем Вам очередное расширение партнерской программы, подробности описаны тут -> ссылка
  • 90% материалов доступно к скачиванию после простой регистрации!
    Если же ты хочешь скачивать материалы без требования оставлять отзывы то получи группу "Новичок", 10 способов повышения описаны тут -> ссылка
  • К сожалению количество битых ссылок растет и мы уже не можем их оперативно восстанавливать поэтому просим помощи у каждого нашего пользователя.
    С сегодняшнего дня, за каждую восстановленную ссылку мы заплатим Вам.
    Подробнее тут -> ссылка
  • Перенесем твои заслуги с другого ресурса!
    Мы понимаем как сложно прокачивать аккаунты на форумах, вроде раскачал аккаунт, а тут появляется ресурс в 100 раз круче но тоже с системой прокачки и снова качать аккаунт...
    Предлагаем вам перенести Ваши заслуги на другом подобном ресурсе к нам.
    Подробности описаны тут -> ссылка
  • Вы можете получать по 2.5% с каждой покупки и продажи на маркете! Подробности в теме Партнёрская программа
Если Вы не хотите скачивать, Вы всегда можетепосмотретьонлайн, просто нажмите кнопку ниже :

Открыть плеер

Torrent_Bot

Торрент-Бот
Бот форума
4 Окт 2016
92
163
20


Информация о фильме
Название: Короткометражка Marvel: Образец 47
Оригинальное название: Marvel One-Shot: Item 47
Год выхода: 2012
Жанр: короткометражка, фантастика, боевик
Режиссер: Луис Д’Эспозито
В ролях: Лиззи Каплан, Джесси Брэдфорд, Максимилиано Эрнандес, Титус Уэлливер, Нэйтан Дин Снайдер

О фильме:
Пара нашла оружие Читаури, которое не заметили соответствующие службы после боя Мстителей с вторженцами. Они решают применить его, с чем вынуждены теперь бороться два агента Щ. И. Т. а.



Страна: США
Продолжительность: 00:11:20
Перевод: Дублированный (любительский) | Flarrow Films

Роли озвучивали: Андрей Маслов, Лена Лунина, Ахилл Намазов и Михаил Федосеев

Файл
Формат: MKV
Кодек: MPEG-4 AVC
Качество: BDRemux 1080p (локализованный видеоряд)
Видео: 1920х804, ~ 14.0 Mb/s, 23.976 FPS, 8 bits
Звук: AC-3, 320 kb/s, 2 channels, 48.0 kHz
Субтитры: русские (отключаемые UTF-8)



MediaInfo
General
Unique ID : 78710688557508727970454118931178923361 (0x3B3720906AAEA7E7A610229EC7FB2561)
Complete name : C:FlarrowMarvel.One-Shot.Item.47.1080p.D.Flarrow.Films.mkv
Format : Matroska
Format version : Version 4
File size : 801 MiB
Duration : 11 min 20 s
Overall bit rate mode : Variable
Overall bit rate : 9 871 kb/s
Encoded date : UTC 2020-08-12 16:38:57
Writing application : mkvmerge v32.0.0 ('Astral Progressions') 64-bit
Writing library : libebml v1.3.7 + libmatroska v1.5.0

Video
ID : 1
Format : AVC
Format/Info : Advanced Video Codec
Format profile : [email protected]
Format settings : CABAC / 2 Ref Frames
Format settings, CABAC : Yes
Format settings, Reference : 2 frames
Format settings, GOP : M=3, N=23
Codec ID : V_MPEG4/ISO/AVC
Duration : 11 min 20 s
Bit rate mode : Variable
Bit rate : 9 549 kb/s
Maximum bit rate : 14.0 Mb/s
Width : 1 920 pixels
Height : 804 pixels
Display aspect ratio : 2.40:1
Frame rate mode : Constant
Frame rate : 23.976 (24000/1001) FPS
Color space : YUV
Chroma subsampling : 4:2:0
Bit depth : 8 bits
Scan type : Progressive
Bits/(Pixel*Frame) : 0.258
Stream size : 775 MiB (97%)
Language : English
Default : Yes
Forced : No

Audio
ID : 2
Format : AC-3
Format/Info : Audio Coding 3
Commercial name : Dolby Digital
Codec ID : A_AC3
Duration : 11 min 20 s
Bit rate mode : Constant
Bit rate : 320 kb/s
Channel(s) : 2 channels
Channel layout : L R
Sampling rate : 48.0 kHz
Frame rate : 31.250 FPS (1536 SPF)
Compression mode : Lossy
Stream size : 26.0 MiB (3%)
Language : Russian
Service kind : Complete Main
Default : Yes
Forced : No

Text
ID : 3
Format : UTF-8
Codec ID : S_TEXT/UTF8
Codec ID/Info : UTF-8 Plain Text
Duration : 8 min 5 s
Bit rate : 91 b/s
Count of elements : 127
Stream size : 5.43 KiB (0%)
Language : Russian
Default : Yes
Forced : No


Скриншоты








Релиз от: Flarrow Films
Примечание: Без интро Flarrow Films



 

Вложения

  • 16,5 KB Просмотры: 0
    Личеров 0
    Сидеров 0
    Файлов 1
    Объем 801,1 MB

Привет!

Мы группа людей которые решили помочь другим в решении их проблем, а так же пользователям с поиском самых свежих и качественных инфопродуктов. За 4 с небольшим месяца мы создали этот форум на который заходят ежедневно тысячи человек и посещаемость постоянно растёт. Мы создали панель лицензирования для защиты PHP скриптов от воровства и SEO панель для мониторинга наших сайтов и выбора верной стратегии их развития. Мы надеемся что то что мы создали пригодится Вам и возможно Вы поможете нам развиваться и совершенствоваться вместе с Вами.

Статистика форума

Темы
406.671
Сообщения
465.116
Пользователи
84.730
Новый пользователь
Станислав788

Приложения форума для iOS и Android


У ркн там нет власти ;)
Приватные разговоры
Помощь Пользователи
    Вы не присоединились ни к одной комнате.