За последнюю неделю опубликовано 62 новых материалов.
Инструкция новичку Путеводитель по форуму Прокси для Telegram Показать подсказки , это бомба!

Скачать Королевство кривых зеркал (1963) BDRip-AVC от ExKinoRay бесплатно через торрент

  • Поучаствуй (в качестве покупателя) в любых пяти совместных покупках (кроме завершённых и "Моментальных") и получи группу "Новичок" навсегда -> ссылка на раздел
  • Получай до 480 рублей за каждого приглашенного пользователя!
    представляем Вам очередное расширение партнерской программы, подробности описаны тут -> ссылка
  • 90% материалов доступно к скачиванию после простой регистрации!
    Если же ты хочешь скачивать материалы без требования оставлять отзывы то получи группу "Новичок", 10 способов повышения описаны тут -> ссылка
  • К сожалению количество битых ссылок растет и мы уже не можем их оперативно восстанавливать поэтому просим помощи у каждого нашего пользователя.
    С сегодняшнего дня, за каждую восстановленную ссылку мы заплатим Вам.
    Подробнее тут -> ссылка
  • Перенесем твои заслуги с другого ресурса!
    Мы понимаем как сложно прокачивать аккаунты на форумах, вроде раскачал аккаунт, а тут появляется ресурс в 100 раз круче но тоже с системой прокачки и снова качать аккаунт...
    Предлагаем вам перенести Ваши заслуги на другом подобном ресурсе к нам.
    Подробности описаны тут -> ссылка
  • Вы можете получать по 2.5% с каждой покупки и продажи на маркете! Подробности в теме Партнёрская программа
Если Вы не хотите скачивать, Вы всегда можетепосмотретьонлайн, просто нажмите кнопку ниже :

Открыть плеер

Torrent_Bot

Торрент-Бот
Бот форума
4 Окт 2016
92
163
20


Информация о фильме
Название : Королевство кривых зеркал
Год выхода: 1963
Жанр: Фэнтези, семейный
Режиссер: Александр Роу
В ролях: Ольга Юкина, Татьяна Юкина, Татьяна Барышева, Андрей Стапран, Иван Кузнецов, Тамара Носова, Анатолий Кубацкий, Аркадий Цинман, Андрей Файт, Лидия Вертинская, Александр Хвыля, Вера Алтайская, Павел Павленко, Ирина Берданосова, Валентин Брылеев, Вячеслав Гостинский, Людмила Карауш, Лидия Королёва, Валентина Куценко, Георгий Милляр, Николай Романов, Надежда Самсонова

О фильме:
Девочка Оля вечно не слушалась свою бабушку, капризничала, ленилась, и вот однажды... Благодаря старому волшебному зеркалу Оля встречается с собственным отражением - девочкой Яло. Обе они попадают в королевство кривых зеркал, где вообще нет обычных зеркал, потому что злые и не очень честные обитатели королевства желают казаться лучше, чем они есть на самом деле. Девочки, в конце концов, побеждают Зло, а для Оли, к тому же, путешествие в зазеркалье дало отличную возможность взглянуть на себя со стороны и исправиться…



Страна: СССР
Студия: к/ст им. М.Горького
Продолжительность: 01:14:58
Язык: Русский

Файл
Формат: MKV
Качество: BDRip-AVC
Видео: MPEG-4 AVC, 596x446, - 1312 Кбит/с
Аудио: AAC-HE, 2 ch, - 76 Кбит/с
Cубтитры: Русские, английские

MI
Общее
Уникальный идентификатор : 23931556008367610122684024992879878365 (0x12010CCEFA4C9C11360F2B57AC0020DD)
Полное имя : D:MOVIESKorolevstvo.krivyh.zerkal.1963.BDRip-AVC.ExKinoRay.mkv
Формат : Matroska
Версия формата : Version 4
Размер файла : 746 Мбайт
Продолжительность : 1 ч. 14 м.
Общий поток : 1 390 Кбит/сек
Дата кодирования : UTC 2020-05-23 16:38:35
Программа кодирования : mkvmerge v45.0.0 ('Heaven in Pennies') 64-bit
Библиотека кодирования : libebml v1.3.10 + libmatroska v1.5.2

Видео
Идентификатор : 1
Формат : AVC
Формат/Информация : Advanced Video Codec
Профиль формата : [email protected]
Настройки формата : CABAC / 11 Ref Frames
Параметр CABAC формата : Да
Параметр RefFrames формата : 11 кадров
Идентификатор кодека : V_MPEG4/ISO/AVC
Продолжительность : 1 ч. 14 м.
Битрейт : 1 312 Кбит/сек
Ширина : 596 пикселей
Высота : 446 пикселей
Соотношение сторон : 4:3
Режим частоты кадров : Постоянный
Частота кадров : 25,000 кадров/сек
Цветовое пространство : YUV
Субдискретизация насыщенности : 4:2:0
Битовая глубина : 8 бит
Тип развёртки : Прогрессивная
Бит/(Пиксели*Кадры) : 0.197
Размер потока : 704 Мбайт (94%)
Библиотека кодирования : x264 core 160 r3000 33f9e14
Настройки программы : cabac=1 / ref=11 / deblock=1:-3:-3 / analyse=0x3:0x133 / me=umh / subme=10 / psy=1 / psy_rd=1.05:0.13 / mixed_ref=1 / me_range=32 / chroma_me=1 / trellis=2 / 8x8dct=1 / cqm=0 / deadzone=21,11 / fast_pskip=0 / chroma_qp_offset=-3 / threads=6 / lookahead_threads=1 / sliced_threads=0 / nr=0 / decimate=0 / interlaced=0 / bluray_compat=0 / constrained_intra=0 / bframes=14 / b_pyramid=2 / b_adapt=2 / b_bias=0 / direct=3 / weightb=1 / open_gop=0 / weightp=2 / keyint=250 / keyint_min=25 / scenecut=40 / intra_refresh=0 / rc=2pass / mbtree=0 / bitrate=1312 / ratetol=1.0 / qcomp=0.60 / qpmin=0 / qpmax=69 / qpstep=4 / cplxblur=20.0 / qblur=0.5 / ip_ratio=1.40 / pb_ratio=1.30 / aq=1:1.00
Default : Да
Forced : Нет
Цветовой диапазон : Limited
Основные цвета : BT.709
Характеристики трансфера : BT.709
Коэффициенты матрицы : BT.709

Аудио
Идентификатор : 2
Формат : AAC LC SBR
Формат/Информация : Advanced Audio Codec Low Complexity with Spectral Band Replication
Коммерческое название : HE-AAC
Настройки формата : Explicit
Идентификатор кодека : A_AAC-2
Продолжительность : 1 ч. 14 м.
Битрейт : 76,0 Кбит/сек
Каналы : 2 канала
Channel layout : L R
Частота : 48,0 КГц
Частота кадров : 23,438 кадра/сек (2048 SPF)
Метод сжатия : С потерями
Задержка видео : 31 мс.
Размер потока : 40,8 Мбайт (5%)
Default : Да
Forced : Нет

Текст #1
Идентификатор : 3
Формат : UTF-8
Идентификатор кодека : S_TEXT/UTF8
Идентификатор кодека/Информация : UTF-8 Plain Text
Продолжительность : 1 ч. 10 м.
Битрейт : 52 бит/сек
Count of elements : 622
Размер потока : 27,1 Кбайт (0%)
Заголовок : Источник BDRemux SoftSub (srt)
Язык : Russian
Default : Нет
Forced : Нет

Текст #2
Идентификатор : 4
Формат : UTF-8
Идентификатор кодека : S_TEXT/UTF8
Идентификатор кодека/Информация : UTF-8 Plain Text
Продолжительность : 1 ч. 14 м.
Битрейт : 33 бит/сек
Count of elements : 650
Размер потока : 18,5 Кбайт (0%)
Заголовок : Источник BDRemux SoftSub (srt)
Язык : English
Default : Нет
Forced : Нет

Меню
00:00:00.000 : :Chapter 01
00:02:27.440 : :Chapter 02
00:08:42.760 : :Chapter 03
00:19:50.400 : :Chapter 04
00:28:44.160 : :Chapter 05
00:39:34.760 : :Chapter 06
00:49:47.400 : :Chapter 07
00:58:29.640 : :Chapter 08
01:10:31.560 : :Chapter 09
Скриншоты

 

Вложения

  • 15,7 KB Просмотры: 0
    Личеров 0
    Сидеров 0
    Файлов 1
    Объем 745,5 MB

Привет!

Мы группа людей которые решили помочь другим в решении их проблем, а так же пользователям с поиском самых свежих и качественных инфопродуктов. За 4 с небольшим месяца мы создали этот форум на который заходят ежедневно тысячи человек и посещаемость постоянно растёт. Мы создали панель лицензирования для защиты PHP скриптов от воровства и SEO панель для мониторинга наших сайтов и выбора верной стратегии их развития. Мы надеемся что то что мы создали пригодится Вам и возможно Вы поможете нам развиваться и совершенствоваться вместе с Вами.

Статистика форума

Темы
406.697
Сообщения
465.154
Пользователи
84.765
Новый пользователь
Джалиля

Приложения форума для iOS и Android


У ркн там нет власти ;)
Приватные разговоры
Помощь Пользователи
    Вы не присоединились ни к одной комнате.