За последнюю неделю опубликовано 84 новых материалов.
Инструкция новичку Путеводитель по форуму Прокси для Telegram Показать подсказки , это бомба!

Скачать Корабль пришельцев (1985) DVDRip от New-Team бесплатно через торрент

  • Поучаствуй (в качестве покупателя) в любых пяти совместных покупках (кроме завершённых и "Моментальных") и получи группу "Новичок" навсегда -> ссылка на раздел
  • Получай до 480 рублей за каждого приглашенного пользователя!
    представляем Вам очередное расширение партнерской программы, подробности описаны тут -> ссылка
  • 90% материалов доступно к скачиванию после простой регистрации!
    Если же ты хочешь скачивать материалы без требования оставлять отзывы то получи группу "Новичок", 10 способов повышения описаны тут -> ссылка
  • К сожалению количество битых ссылок растет и мы уже не можем их оперативно восстанавливать поэтому просим помощи у каждого нашего пользователя.
    С сегодняшнего дня, за каждую восстановленную ссылку мы заплатим Вам.
    Подробнее тут -> ссылка
  • Перенесем твои заслуги с другого ресурса!
    Мы понимаем как сложно прокачивать аккаунты на форумах, вроде раскачал аккаунт, а тут появляется ресурс в 100 раз круче но тоже с системой прокачки и снова качать аккаунт...
    Предлагаем вам перенести Ваши заслуги на другом подобном ресурсе к нам.
    Подробности описаны тут -> ссылка
  • Вы можете получать по 2.5% с каждой покупки и продажи на маркете! Подробности в теме Партнёрская программа
Если Вы не хотите скачивать, Вы всегда можетепосмотретьонлайн, просто нажмите кнопку ниже :

Открыть плеер

Torrent_Bot

Торрент-Бот
Бот форума
4 Окт 2016
104
152
20
Страна: CCCP
Производство: Студия Горького

Жанр: драма, приключения
Год выпуска: 1985
Продолжительность: 01:27:12

Перевод: не требуется
Оригинальная аудиодорожка: русский
Cубтитры: нет

Режиссер: Сергей Никоненко

В ролях:
Олег Табаков, Екатерина Воронина, Сергей Никоненко, Райво Трасс, Валерий Гатаев, Владимир Стеклов, Наталья Аринбасарова, Александр Новиков, Алексей Ванин, Ольга Матешко, Михаил Еремеев, Николай Дупак, Л.Иванова, Яков Беленький, К.Бокаев, Олег Голубицкий...


1960 год. Советские ученые осуществили пробный запуск космического корабля «Восток». Полет окончился неудачей. Одна из ступеней ракеты не отделилась вместе со спусковой капсулой. Чтобы разобраться в причинах аварии, необходимо было срочно найти корабль.
В Академию Наук пришла телеграмма от метеоролога из сибирского городка, который сообщал, что видел падение светящегося объекта, возможно — НЛО…





Исходник: DVD5 R5
Тип релиза: DVDRip
Контейнер: AVI

Видео: 624x480 (4:3), 25 fps, XviD ~ 1056 kbps avg, 0.141 bit/pixel
Аудио: 48 kHz, MP3 2.0, 128 kbps

Раздача от:
MediaInfo
Общее
Полное имя : Korabl.prishelcev.1985.DVDRip-745_[New-team]_by_AVP_Studio.avi
Формат : AVI
Формат/Информация : Audio Video Interleave
Размер файла : 744 Мбайт
Продолжительность : 1 ч. 27 м.
Общий поток : 1193 Кбит/сек
Программа кодирования : VirtualDubModRus 1.5.10.2 (build 2542/release)
Библиотека кодирования : VirtualDubMod build 2542/release

Видео
Идентификатор : 0
Формат : MPEG-4 Visual
Профиль формата : Advanced Simple@L5
Параметр BVOP формата : 1
Параметр QPel формата : Нет
Параметр GMC формата : Без точки перехода
Параметр матрицы формата : Выборочная
Идентификатор кодека : XVID
Идентификатор кодека/Подсказка : XviD
Продолжительность : 1 ч. 27 м.
Битрейт : 1056 Кбит/сек
Ширина : 624 пикселя
Высота : 480 пикселей
Соотношение сторон : 4:3
Частота кадров : 25,000 кадров/сек
Цветовое пространство : YUV
Субдискретизация насыщенности : 4:2:0
Битовая глубина : 8 бит
Тип развёртки : Прогрессивная
Метод сжатия : С потерями
Бит/(Пиксели*Кадры) : 0.141
Размер потока : 658 Мбайт (88%)
Библиотека кодирования : XviD 73

Аудио
Идентификатор : 1
Формат : MPEG Audio
Версия формата : Version 1
Профиль формата : Layer 3
Идентификатор кодека : 55
Идентификатор кодека/Подсказка : MP3
Продолжительность : 1 ч. 27 м.
Вид битрейта : Постоянный
Битрейт : 128 Кбит/сек
Каналы : 2 канала
Частота : 48,0 КГц
Метод сжатия : С потерями
Размер потока : 79,8 Мбайт (11%)
Выравнивание : Соединение по промежуткам
Продолжительность промежутка : 40 мс. (1,00 видеокадр)
Время предзагрузки промежутка : 504 мс.
Библиотека кодирования : LAME3.99r
Настройки программы : -m s -V 4 -q 2 -lowpass 17 -b 128
Скриншоты
Это интересно
Фильм снимался в Канском районе Красноярского края, далеко от Туры.
Консультантом картины выступал известный летчик-космонавт Георгий Гречко, прототипа которого сыграл в фильме его режиссёр Сергей Никоненко. В имени фамилии его героя (Георгий Гришин) изменены только несколько букв.
Корреспондента Татьяну Зименкову, с которой флиртует герой Сергея Никоненко, играет Екатерина Воронина, являющаяся в жизни его женой.
На месте падения поисковая группа обнаруживает не только спускаемый аппарат космического корабля, но и не отделившиеся от него приборный отсек с тормозной ракетной установкой и даже 3-ю ступень ракеты-носителя, чего никак не могло быть в реальности. 3-я ступень при неотделении помешала бы работе тормозной системы и, соответственно, возвращению корабля на землю, а приборный отсек при входе в атмосферу и перегорании скрепляющих лент отделился бы сам — такое было предусмотрено.
Подъем спускаемого аппарата («шарика») в фильме производился с помощью вертолета Ми-8, а не Ми-4, как в реальности и в литературном первоисточнике. Грузоподъемность Ми-4 была на пределе массы спускаемого аппарата, тогда как для Ми-8 такая задача трудности не представляла. В связи с этим сюжетная коллизия вокруг сложности подъема спускаемого аппарата становится нелогичной. Однако первый пробный экземпляр Ми-8 поднялся в воздух только через год после описанных в фильме событий.
В Туру поисковая группа летит на самолете Ан-24, серийный выпуск которого начался в 1962 году, то есть спустя два года после описанных событий
Ан-24 делает пробных проход над аэродромом Туры выпустив шасси.
В финальных кадрах фильма, после титров «12 апреля 1961 года», показан запуск космического корабля «Союз» с соответствующей ракетой-носителем (вместо корабля «Восток» с соответствующей ракетой-носителем).
В массовке эпизода в аэропорту приняли участие жители г. Канска.
 

Вложения

  • 15,8 KB Просмотры: 0
    Личеров 0
    Сидеров 0
    Файлов 1
    Объем 744,3 MB

Привет!

Мы группа людей которые решили помочь другим в решении их проблем, а так же пользователям с поиском самых свежих и качественных инфопродуктов. За 4 с небольшим месяца мы создали этот форум на который заходят ежедневно тысячи человек и посещаемость постоянно растёт. Мы создали панель лицензирования для защиты PHP скриптов от воровства и SEO панель для мониторинга наших сайтов и выбора верной стратегии их развития. Мы надеемся что то что мы создали пригодится Вам и возможно Вы поможете нам развиваться и совершенствоваться вместе с Вами.

Статистика форума

Темы
404.550
Сообщения
461.466
Пользователи
80.111
Новый пользователь
dapohui

Приложения форума для iOS и Android


У ркн там нет власти ;)
Приватные разговоры
Помощь Пользователи
    Вы не присоединились ни к одной комнате.