За последнюю неделю опубликовано 35 новых материалов.
Инструкция новичку Путеводитель по форуму Прокси для Telegram Показать подсказки , это бомба!

Скачать Копы в юбках / The Heat (2013) BDRemux 1080p | UNRATED | Лицензия бесплатно через торрент

  • Поучаствуй (в качестве покупателя) в любых пяти совместных покупках (кроме завершённых и "Моментальных") и получи группу "Новичок" навсегда -> ссылка на раздел
  • Получай до 480 рублей за каждого приглашенного пользователя!
    представляем Вам очередное расширение партнерской программы, подробности описаны тут -> ссылка
  • 90% материалов доступно к скачиванию после простой регистрации!
    Если же ты хочешь скачивать материалы без требования оставлять отзывы то получи группу "Новичок", 10 способов повышения описаны тут -> ссылка
  • К сожалению количество битых ссылок растет и мы уже не можем их оперативно восстанавливать поэтому просим помощи у каждого нашего пользователя.
    С сегодняшнего дня, за каждую восстановленную ссылку мы заплатим Вам.
    Подробнее тут -> ссылка
  • Перенесем твои заслуги с другого ресурса!
    Мы понимаем как сложно прокачивать аккаунты на форумах, вроде раскачал аккаунт, а тут появляется ресурс в 100 раз круче но тоже с системой прокачки и снова качать аккаунт...
    Предлагаем вам перенести Ваши заслуги на другом подобном ресурсе к нам.
    Подробности описаны тут -> ссылка
  • Вы можете получать по 2.5% с каждой покупки и продажи на маркете! Подробности в теме Партнёрская программа
Если Вы не хотите скачивать, Вы всегда можетепосмотретьонлайн, просто нажмите кнопку ниже :

Открыть плеер

Torrent_Bot

Торрент-Бот
Бот форума
4 Окт 2016
90
168
20



Информация о фильме
Название: Копы в юбках
Оригинальное название: The Heat
Год выпуска: 2013
Жанр:Боевик, комедия, криминал
Выпущено: США, Twentieth Century Fox Film Corporation, Chernin Entertainment, Dune Entertainment, Dune Entertainment III
Режиссер: Пол Фиг
В ролях: Сандра Баллок, Мелисса МакКарти, Кэйтлин Олсен, Таран Киллэм, Томас Ф. Уилсон, Майкл Рапапорт, Демиан Бишир, Тони Хейл, Билли Барр, Энди Бакли

О фильме: Агенту ФБР и бостонскому полицейскому доверено ответственное задание: выйти на след и обезвредить опасного преступника. И это даже хорошо, что копы — женщины, ведь бандит-то — русский. А непредсказуемости русской смекалки можно противопоставить только столь же непредсказуемую женскую логику.



Файл
Качество: Blu-Ray Remux (1080p)
Видео: MPEG-4 AVC, 21379 Кбит/с, 1920x1080
Аудио: Русский, украинский (AC3, 6 ch, 448 Кбит/с), русский (DTS, 6 ch, 768 Кбит/с), английский (DTS-HD MA, 6 ch, 3234 Кбит/с), (AC3, 6 ch, 448 Кбит/с)
Продолжительность: 02:00:20
Перевод: Дублированный [лицензия]
Субтитры: Русские, украинские, английские

MI
Общее
Уникальный идентификатор : 224586816338203975061407703007446221897 (0xA8F5D8F3CBD1E34E9F128F8C65E4C449)
Полное имя : C:1The.Heat.2013.UNRATEDThe.Heat.2013.UNRATED.x264.BDRemux(1080p).mkv
Формат : Matroska
Версия формата : Version 2
Размер файла : 22,3 Гбайт
Продолжительность : 2 ч. 0 м.
Режим общего битрейта : Переменный
Общий поток : 26,6 Мбит/сек

Дата кодирования : UTC 2013-10-29 22:31:26
Программа кодирования : mkvmerge v6.3.0 ('You can't stop me!') built on Jun 28 2013 20:09:41
Библиотека кодирования : libebml v1.3.0 + libmatroska v1.4.0

Видео
Идентификатор : 1
Формат : AVC
Формат/Информация : Advanced Video Codec
Профиль формата : [email protected]
Параметр CABAC формата : Да
Параметр ReFrames формата : 4 кадра
Идентификатор кодека : V_MPEG4/ISO/AVC
Продолжительность : 2 ч. 0 м.
Вид битрейта : Переменный
Максимальный битрейт : 31,0 Мбит/сек
Ширина : 1920 пикселей
Высота : 1080 пикселей
Соотношение сторон : 16:9
Режим частоты кадров : Постоянный
Частота кадров : 23,976 кадра/сек
Цветовое пространство : YUV
Субдискретизация насыщенности : 4:2:0
Битовая глубина : 8 бит
Тип развёртки : Прогрессивная
Default : Да
Forced : Нет

Аудио #1
Идентификатор : 2
Формат : DTS
Формат/Информация : Digital Theater Systems
Режим : 16
Параметр Endianness формата : Big
Идентификатор кодека : A_DTS
Продолжительность : 2 ч. 0 м.
Вид битрейта : Постоянный
Битрейт : 768 Кбит/сек
Каналы : 6 каналов
Расположение каналов : Front: L C R, Side: L R, LFE
Частота : 48,0 КГц
Битовая глубина : 24 бит
Метод сжатия : С потерями
Размер потока : 661 Мбайт (3%)
Заголовок : BD EUR 768
Язык : Russian
Default : Да
Forced : Нет

Аудио #2
Идентификатор : 3
Формат : AC-3
Формат/Информация : Audio Coding 3
Расширение режима : CM (complete main)
Параметр Endianness формата : Big
Идентификатор кодека : A_AC3
Продолжительность : 2 ч. 0 м.
Вид битрейта : Постоянный
Битрейт : 448 Кбит/сек
Каналы : 6 каналов
Расположение каналов : Front: L C R, Side: L R, LFE
Частота : 48,0 КГц
Битовая глубина : 16 бит
Метод сжатия : С потерями
Размер потока : 386 Мбайт (2%)
Заголовок : BD EUR 448
Язык : Russian
Default : Нет
Forced : Нет

Аудио #3
Идентификатор : 4
Формат : AC-3
Формат/Информация : Audio Coding 3
Расширение режима : CM (complete main)
Параметр Endianness формата : Big
Идентификатор кодека : A_AC3
Продолжительность : 2 ч. 0 м.
Вид битрейта : Постоянный
Битрейт : 448 Кбит/сек
Каналы : 6 каналов
Расположение каналов : Front: L C R, Side: L R, LFE
Частота : 48,0 КГц
Битовая глубина : 16 бит
Метод сжатия : С потерями
Размер потока : 386 Мбайт (2%)
Заголовок : BD EUR 448
Язык : Ukrainian
Default : Нет
Forced : Нет

Аудио #4
Идентификатор : 5
Формат : DTS
Формат/Информация : Digital Theater Systems
Профиль формата : MA / Core
Режим : 16
Параметр Endianness формата : Big
Идентификатор кодека : A_DTS
Продолжительность : 2 ч. 0 м.
Вид битрейта : Переменный
Битрейт : Неизвестно / 1509 Кбит/сек
Каналы : 6 каналов
Расположение каналов : Front: L C R, Side: L R, LFE
Частота : 48,0 КГц
Битовая глубина : 24 бит
Метод сжатия : Без потерь / Lossy
Язык : English
Default : Нет
Forced : Нет

Аудио #5
Идентификатор : 6
Формат : AC-3
Формат/Информация : Audio Coding 3
Расширение режима : CM (complete main)
Параметр Endianness формата : Big
Идентификатор кодека : A_AC3
Продолжительность : 2 ч. 0 м.
Вид битрейта : Постоянный
Битрейт : 448 Кбит/сек
Каналы : 6 каналов
Расположение каналов : Front: L C R, Side: L R, LFE
Частота : 48,0 КГц
Битовая глубина : 16 бит
Метод сжатия : С потерями
Размер потока : 386 Мбайт (2%)
Язык : English
Default : Нет
Forced : Нет

Текст #1
Идентификатор : 7
Формат : UTF-8
Идентификатор кодека : S_TEXT/UTF8
Идентификатор кодека/Информация : UTF-8 Plain Text
Язык : Russian
Default : Нет
Forced : Нет

Текст #2
Идентификатор : 8
Формат : UTF-8
Идентификатор кодека : S_TEXT/UTF8
Идентификатор кодека/Информация : UTF-8 Plain Text
Язык : Ukrainian
Default : Нет
Forced : Нет

Текст #3
Идентификатор : 9
Формат : UTF-8
Идентификатор кодека : S_TEXT/UTF8
Идентификатор кодека/Информация : UTF-8 Plain Text
Заголовок : English (Full)
Язык : English
Default : Нет
Forced : Нет

Текст #4
Идентификатор : 10
Формат : UTF-8
Идентификатор кодека : S_TEXT/UTF8
Идентификатор кодека/Информация : UTF-8 Plain Text
Заголовок : English (SDH)
Язык : English
Default : Нет
Forced : Нет

Текст #5
Идентификатор : 11
Формат : UTF-8
Идентификатор кодека : S_TEXT/UTF8
Идентификатор кодека/Информация : UTF-8 Plain Text
Заголовок : English (SDH-Colored)
Язык : English
Default : Нет
Forced : Нет

Меню
00:00:00.000 : en:00:00:00.000
00:01:46.022 : en:00:01:46.022
00:05:28.453 : en:00:05:28.453
00:07:15.977 : en:00:07:15.977
00:11:26.435 : en:00:11:26.435
00:14:17.898 : en:00:14:17.898
00:16:38.956 : en:00:16:38.956
00:19:50.939 : en:00:19:50.939
00:23:23.610 : en:00:23:23.610
00:26:18.118 : en:00:26:18.118
00:30:11.976 : en:00:30:11.976
00:34:07.837 : en:00:34:07.837
00:36:27.101 : en:00:36:27.101
00:39:12.975 : en:00:39:12.975
00:44:44.139 : en:00:44:44.139
00:47:59.584 : en:00:47:59.584
00:52:59.801 : en:00:52:59.801
00:56:13.786 : en:00:56:13.786
01:00:57.778 : en:01:00:57.778
01:03:25.801 : en:01:03:25.801
01:05:47.151 : en:01:05:47.151
01:09:34.795 : en:01:09:34.795
01:17:00.574 : en:01:17:00.574
01:23:38.638 : en:01:23:38.638
01:26:51.622 : en:01:26:51.622
01:28:37.019 : en:01:28:37.019
01:31:07.420 : en:01:31:07.420
01:34:08.559 : en:01:34:08.559
01:37:03.233 : en:01:37:03.233
01:39:41.224 : en:01:39:41.224
01:44:20.670 : en:01:44:20.670
01:45:41.501 : en:01:45:41.501
01:48:54.569 : en:01:48:54.569
01:51:15.710 : en:01:51:15.710
01:54:02.710 : en:01:54:02.710
01:55:24.876 : en:01:55:24.876
Скриншоты

 

Вложения

  • 112,7 KB Просмотры: 1
    Личеров 0
    Сидеров 0
    Файлов 1
    Объем 22,3 GB

Привет!

Мы группа людей которые решили помочь другим в решении их проблем, а так же пользователям с поиском самых свежих и качественных инфопродуктов. За 4 с небольшим месяца мы создали этот форум на который заходят ежедневно тысячи человек и посещаемость постоянно растёт. Мы создали панель лицензирования для защиты PHP скриптов от воровства и SEO панель для мониторинга наших сайтов и выбора верной стратегии их развития. Мы надеемся что то что мы создали пригодится Вам и возможно Вы поможете нам развиваться и совершенствоваться вместе с Вами.

Статистика форума

Темы
410.952
Сообщения
469.384
Пользователи
88.420
Новый пользователь
Grimoar

Приложения форума для iOS и Android


У ркн там нет власти ;)
Приватные разговоры
Помощь Пользователи
    Вы не присоединились ни к одной комнате.