За последнюю неделю опубликовано 64 новых материалов.
Инструкция новичку Путеводитель по форуму Прокси для Telegram Показать подсказки , это бомба!

Скачать Конвой / Convoy (1978) BDRip-AVC от ExKinoRay | D бесплатно через торрент

  • Поучаствуй (в качестве покупателя) в любых пяти совместных покупках (кроме завершённых и "Моментальных") и получи группу "Новичок" навсегда -> ссылка на раздел
  • Получай до 480 рублей за каждого приглашенного пользователя!
    представляем Вам очередное расширение партнерской программы, подробности описаны тут -> ссылка
  • 90% материалов доступно к скачиванию после простой регистрации!
    Если же ты хочешь скачивать материалы без требования оставлять отзывы то получи группу "Новичок", 10 способов повышения описаны тут -> ссылка
  • К сожалению количество битых ссылок растет и мы уже не можем их оперативно восстанавливать поэтому просим помощи у каждого нашего пользователя.
    С сегодняшнего дня, за каждую восстановленную ссылку мы заплатим Вам.
    Подробнее тут -> ссылка
  • Перенесем твои заслуги с другого ресурса!
    Мы понимаем как сложно прокачивать аккаунты на форумах, вроде раскачал аккаунт, а тут появляется ресурс в 100 раз круче но тоже с системой прокачки и снова качать аккаунт...
    Предлагаем вам перенести Ваши заслуги на другом подобном ресурсе к нам.
    Подробности описаны тут -> ссылка
  • Вы можете получать по 2.5% с каждой покупки и продажи на маркете! Подробности в теме Партнёрская программа
Если Вы не хотите скачивать, Вы всегда можетепосмотретьонлайн, просто нажмите кнопку ниже :

Открыть плеер

Torrent_Bot

Торрент-Бот
Бот форума
4 Окт 2016
92
160
20


Информация о фильме
Название: Конвой
Оригинальное название: Convoy
Год выхода: 1978
Жанр: Драма, комедия, боевик
Режиссер: Сэм Пекинпа
В ролях: Крис Кристофферсон, Эли МакГроу, Эрнест Боргнайн, Бёрт Янг, Мэдж Синклер, Френклин Эджайя, Брайан Дейвис, Сеймур Кэссел, Кэсси Йэтс, Уолтер Келли, Джексон Кэйн, Билли Э. Хьюз, Уайти Хьюз, Билл Кунтц, Томми Дж. Хафф, Ларри Сполдинг, Рэнди Брэйди, Аллен Келлер, Джим Берк, Боб Оррисон, Томми Буш, Уильям С. Джонс мл., Хорхе Руссек, Том Раньон, Вера Зинович, Патриция Мартинез, Донни Фриттс, Бобби Барнс

О фильме:
Мощный конвой грузовиков, вздымающих тучи пыли, движется к границе штата юго-западной части Америки. Массивную коллекцию машин всех размеров и очертаний ведет «Резиновый утенок», легендарный водитель-дальнобойщик, который собрал армию единомышленников, протестуя против полицейской коррупции, государственных законов и теневой политики. Ведь именно политики протолкнули федеральный закон, ограничивающий скорость движения на дорогах до смешных 55 миль в час, из-за чего водители постоянно теряют время и деньги…



Страна: США, Великобритания
Студия: EMI Films Ltd.
Продолжительность: 01:51:06
Перевод: Дублированный (со вставками двухголосого перевода НТВ+)

Файл
Формат: MKV
Качество: BDRip-AVC
Видео: MPEG-4 AVC, 748x318, - 861 Кбит/с
Аудио: AAC-HE, 2 ch, - 76 Кбит/с
Субтитры: Русские, английские

MI
Общее
Уникальный идентификатор : 230403903711885862343008241247179070773 (0xAD562D80C71E8DEFA80E3B6375595D35)
Полное имя : D:MOVIESKonvoj.1978.BDRip-AVC.ExKinoRay.mkv
Формат : Matroska
Версия формата : Version 4
Размер файла : 747 Мбайт
Продолжительность : 1 ч. 51 м.
Общий поток : 939 Кбит/сек
Дата кодирования : UTC 2020-05-16 05:53:42
Программа кодирования : mkvmerge v45.0.0 ('Heaven in Pennies') 64-bit
Библиотека кодирования : libebml v1.3.10 + libmatroska v1.5.2

Видео
Идентификатор : 1
Формат : AVC
Формат/Информация : Advanced Video Codec
Профиль формата : [email protected]
Настройки формата : CABAC / 11 Ref Frames
Параметр CABAC формата : Да
Параметр RefFrames формата : 11 кадров
Идентификатор кодека : V_MPEG4/ISO/AVC
Продолжительность : 1 ч. 51 м.
Битрейт : 861 Кбит/сек
Ширина : 748 пикселей
Высота : 318 пикселей
Соотношение сторон : 2,35:1
Режим частоты кадров : Постоянный
Частота кадров : 23,976 (24000/1001) кадра/сек
Цветовое пространство : YUV
Субдискретизация насыщенности : 4:2:0
Битовая глубина : 8 бит
Тип развёртки : Прогрессивная
Бит/(Пиксели*Кадры) : 0.151
Размер потока : 684 Мбайт (92%)
Библиотека кодирования : x264 core 159 r2991 1771b55
Настройки программы : cabac=1 / ref=11 / deblock=1:-3:-2 / analyse=0x3:0x133 / me=umh / subme=10 / psy=1 / psy_rd=1.05:0.12 / mixed_ref=1 / me_range=32 / chroma_me=1 / trellis=2 / 8x8dct=1 / cqm=0 / deadzone=21,11 / fast_pskip=0 / chroma_qp_offset=-3 / threads=6 / lookahead_threads=1 / sliced_threads=0 / nr=0 / decimate=0 / interlaced=0 / bluray_compat=0 / constrained_intra=0 / bframes=12 / b_pyramid=2 / b_adapt=2 / b_bias=0 / direct=3 / weightb=1 / open_gop=0 / weightp=2 / keyint=240 / keyint_min=23 / scenecut=40 / intra_refresh=0 / rc_lookahead=40 / rc=2pass / mbtree=1 / bitrate=861 / ratetol=1.0 / qcomp=0.60 / qpmin=0 / qpmax=69 / qpstep=4 / cplxblur=20.0 / qblur=0.5 / ip_ratio=1.40 / aq=3:1.00
Default : Да
Forced : Нет
Цветовой диапазон : Limited
Основные цвета : BT.709
Характеристики трансфера : BT.709
Коэффициенты матрицы : BT.709

Аудио
Идентификатор : 2
Формат : AAC LC SBR
Формат/Информация : Advanced Audio Codec Low Complexity with Spectral Band Replication
Коммерческое название : HE-AAC
Настройки формата : Explicit
Идентификатор кодека : A_AAC-2
Продолжительность : 1 ч. 51 м.
Битрейт : 76,0 Кбит/сек
Каналы : 2 канала
Channel layout : L R
Частота : 48,0 КГц
Частота кадров : 23,438 кадра/сек (2048 SPF)
Метод сжатия : С потерями
Задержка видео : 31 мс.
Размер потока : 60,4 Мбайт (8%)
Язык : Russian
Default : Да
Forced : Нет

Текст #1
Идентификатор : 3
Формат : UTF-8
Идентификатор кодека : S_TEXT/UTF8
Идентификатор кодека/Информация : UTF-8 Plain Text
Продолжительность : 1 ч. 50 м.
Битрейт : 82 бит/сек
Count of elements : 1131
Размер потока : 66,4 Кбайт (0%)
Заголовок : RusCiCo
Язык : Russian
Default : Нет
Forced : Нет

Текст #2
Идентификатор : 4
Формат : UTF-8
Идентификатор кодека : S_TEXT/UTF8
Идентификатор кодека/Информация : UTF-8 Plain Text
Продолжительность : 1 ч. 49 м.
Битрейт : 64 бит/сек
Count of elements : 1388
Размер потока : 51,6 Кбайт (0%)
Заголовок : Full
Язык : English
Default : Нет
Forced : Нет

Текст #3
Идентификатор : 5
Формат : UTF-8
Идентификатор кодека : S_TEXT/UTF8
Идентификатор кодека/Информация : UTF-8 Plain Text
Продолжительность : 1 ч. 49 м.
Битрейт : 59 бит/сек
Count of elements : 1296
Размер потока : 47,9 Кбайт (0%)
Заголовок : Full without lyrics
Язык : English
Default : Нет
Forced : Нет

Меню
00:00:00.000 : en:01. Opening Credits
00:03:09.397 : en:02. Hot on the Highway
00:09:05.294 : en:03. Speed Trap
00:13:22.927 : en:04. Roadhouse Dinner
00:20:23.764 : en:05. The Hight
00:29:11.750 : en:06. Runnin' From the Bear
00:35:30.795 : en:07. Hot Pursuit
00:39:51.555 : en:08. Fun with Smokey
00:48:22.149 : en:09. Convoy
01:00:54.984 : en:10. A Cause
01:20:15.477 : en:11. Helping a Friend
01:40:18.846 : en:12. In Memory Of
Скриншоты

 

Вложения

  • 15,7 KB Просмотры: 0
    Личеров 0
    Сидеров 0
    Файлов 1
    Объем 746,5 MB

Привет!

Мы группа людей которые решили помочь другим в решении их проблем, а так же пользователям с поиском самых свежих и качественных инфопродуктов. За 4 с небольшим месяца мы создали этот форум на который заходят ежедневно тысячи человек и посещаемость постоянно растёт. Мы создали панель лицензирования для защиты PHP скриптов от воровства и SEO панель для мониторинга наших сайтов и выбора верной стратегии их развития. Мы надеемся что то что мы создали пригодится Вам и возможно Вы поможете нам развиваться и совершенствоваться вместе с Вами.

Статистика форума

Темы
406.657
Сообщения
465.101
Пользователи
84.679
Новый пользователь
Cheza

Приложения форума для iOS и Android


У ркн там нет власти ;)
Приватные разговоры
Помощь Пользователи
    Вы не присоединились ни к одной комнате.