За последнюю неделю опубликовано 63 новых материалов.
Инструкция новичку Путеводитель по форуму Прокси для Telegram Показать подсказки , это бомба!

Скачать Контакт / Communion (1989) BDRemux 1080p | P бесплатно через торрент

  • Поучаствуй (в качестве покупателя) в любых пяти совместных покупках (кроме завершённых и "Моментальных") и получи группу "Новичок" навсегда -> ссылка на раздел
  • Получай до 480 рублей за каждого приглашенного пользователя!
    представляем Вам очередное расширение партнерской программы, подробности описаны тут -> ссылка
  • 90% материалов доступно к скачиванию после простой регистрации!
    Если же ты хочешь скачивать материалы без требования оставлять отзывы то получи группу "Новичок", 10 способов повышения описаны тут -> ссылка
  • К сожалению количество битых ссылок растет и мы уже не можем их оперативно восстанавливать поэтому просим помощи у каждого нашего пользователя.
    С сегодняшнего дня, за каждую восстановленную ссылку мы заплатим Вам.
    Подробнее тут -> ссылка
  • Перенесем твои заслуги с другого ресурса!
    Мы понимаем как сложно прокачивать аккаунты на форумах, вроде раскачал аккаунт, а тут появляется ресурс в 100 раз круче но тоже с системой прокачки и снова качать аккаунт...
    Предлагаем вам перенести Ваши заслуги на другом подобном ресурсе к нам.
    Подробности описаны тут -> ссылка
  • Вы можете получать по 2.5% с каждой покупки и продажи на маркете! Подробности в теме Партнёрская программа
Если Вы не хотите скачивать, Вы всегда можетепосмотретьонлайн, просто нажмите кнопку ниже :

Открыть плеер

Torrent_Bot

Торрент-Бот
Бот форума
4 Окт 2016
82
186
20

Информация о фильме
Название: Контакт
Оригинальное название: Communion
Год выхода: 1989
Жанр: Ужасы, фантастика, триллер, драма, биография, экранизация
Режиссер: Филипп Мора
В ролях: Кристофер Уокен, Линдси Краус, Фрэнсис Стернхаген, Андреас Катсулас, Терри Хэнауэр, Джоэль Карлсон, Джон Деннис Джонстон, Ди Ди Решер, Эйлин Фицпатрик, Р.Дж. Миллер

О фильме:
В основу фильма положена подлинная сенсационная история, случившаяся с американским писателем-фантастом Уитли Стрибером. Он переезжает с женой и сыном в загородный дом, чтобы закончить новый роман. Дальнейшие события, участником которых оказывается Стрибер, станут основой его документального бестселлера о контакте с инопланетной цивилизацией. Все подробности происшедшего Стрибер смог восстановить только после нескольких сеансов глубокого гипноза. Были ли эти встречи с внеземным разумом реальностью, или они всего лишь плод невероятно яркого воображения писателя?





Страна: США, Великобритания
Студия: Allied Vision, Pheasantry Films, The Picture Property Company
Продолжительность: 01:49:16
Перевод: Профессиональный многоголосый | ТВ3

Файл
Кодек: x264
Качество: BDRemux 1080p
Видео: MPEG-4 AVC, 23.8 Mбит/с, 1920x1080
Звук №1: Русский | AC3, 2 ch, 192 Кбит/с | Профессиональный многоголосый | ТВ3
Звук №2: Английский | AC3, 2 ch, 192 Кбит/с | Оригинал
Субтитры: Английские


Скриншоты
Инфо-файл
Формат : Matroska
Версия формата : Version 2
Размер файла : 18,5 Гбайт
Продолжительность : 1 ч. 49 м.
Режим общего битрейта : Переменный
Общий поток : 24,2 Мбит/сек
Название фильма : Communion.1989.1080p.BluRay.REMUX.by.zzZGVvv
Дата кодирования : UTC 2018-08-21 06:13:02
Программа кодирования : mkvmerge v5.8.0 ('No Sleep / Pillow') built on Sep 2 2012 15:37:04
Библиотека кодирования : libebml v1.2.3 + libmatroska v1.3.0
Attachements : cover.jpg

Видео
Идентификатор : 1
Формат : AVC
Формат/Информация : Advanced Video Codec
Профиль формата : [email protected]
Параметр CABAC формата : Да
Параметр ReFrames формата : 3 кадра
Параметр GOP формата : M=3, N=23
Идентификатор кодека : V_MPEG4/ISO/AVC
Продолжительность : 1 ч. 49 м.
Вид битрейта : Переменный
Битрейт : 23,3 Мбит/сек
Максимальный битрейт : 30,0 Мбит/сек
Ширина : 1920 пикселей
Высота : 1080 пикселей
Соотношение сторон : 16:9
Режим частоты кадров : Постоянный
Частота кадров : 23,976 кадра/сек
Стандарт вещания : NTSC
Цветовое пространство : YUV
Субдискретизация насыщенности : 4:2:0
Битовая глубина : 8 бит
Тип развёртки : Прогрессивная
Бит/(Пиксели*Кадры) : 0.470
Размер потока : 17,8 Гбайт (96%)
Заголовок : Communion.1989.1080p.BluRay.REMUX.AVC.DD2.0
Язык : English
Default : Да
Forced : Нет
Цветовой диапазон : Limited
Основные цвета : BT.709
Характеристики трансфера : BT.709
Коэффициенты матрицы : BT.709

Аудио #1
Идентификатор : 2
Формат : AC-3
Формат/Информация : Audio Coding 3
Расширение режима : CM (complete main)
Параметр Endianness формата : Big
Идентификатор кодека : A_AC3
Продолжительность : 1 ч. 49 м.
Вид битрейта : Постоянный
Битрейт : 192 Кбит/сек
Каналы : 2 канала
Расположение каналов : Front: L R
Частота : 48,0 КГц
Метод сжатия : С потерями
Размер потока : 150 Мбайт (1%)
Заголовок : MVO (ТВ3)
Язык : Russian
Default : Да
Forced : Нет

Аудио #2
Идентификатор : 3
Формат : AC-3
Формат/Информация : Audio Coding 3
Расширение режима : CM (complete main)
Параметр Endianness формата : Big
Идентификатор кодека : A_AC3
Продолжительность : 1 ч. 49 м.
Вид битрейта : Постоянный
Битрейт : 192 Кбит/сек
Каналы : 2 канала
Расположение каналов : Front: L R
Частота : 48,0 КГц
Метод сжатия : С потерями
Размер потока : 150 Мбайт (1%)
Язык : English
Default : Нет
Forced : Нет

Текст
Идентификатор : 4
Формат : UTF-8
Идентификатор кодека : S_TEXT/UTF8
Идентификатор кодека/Информация : UTF-8 Plain Text
Язык : English
Default : Нет
Forced : Нет

Меню
00:00:00.000 : en:Chapter 01
00:00:00.959 : en:Chapter 02
00:19:44.194 : en:Chapter 03
00:35:21.338 : en:Chapter 04
00:56:30.189 : en:Chapter 05
01:13:35.505 : en:Chapter 06
01:27:52.194 : en:Chapter 07
 

Вложения

  • 93,4 KB Просмотры: 1
    Личеров 0
    Сидеров 0
    Файлов 1
    Объем 18,5 GB

Привет!

Мы группа людей которые решили помочь другим в решении их проблем, а так же пользователям с поиском самых свежих и качественных инфопродуктов. За 4 с небольшим месяца мы создали этот форум на который заходят ежедневно тысячи человек и посещаемость постоянно растёт. Мы создали панель лицензирования для защиты PHP скриптов от воровства и SEO панель для мониторинга наших сайтов и выбора верной стратегии их развития. Мы надеемся что то что мы создали пригодится Вам и возможно Вы поможете нам развиваться и совершенствоваться вместе с Вами.

Статистика форума

Темы
412.099
Сообщения
471.069
Пользователи
91.344
Новый пользователь
ЕкатеринаЛи

Приложения форума для iOS и Android


У ркн там нет власти ;)
Приватные разговоры
Помощь Пользователи
    Вы не присоединились ни к одной комнате.