За последнюю неделю опубликовано 59 новых материалов.
Инструкция новичку Путеводитель по форуму Прокси для Telegram Показать подсказки , это бомба!

Скачать Консервный ряд / Cannery Row (1982) BDRip 1080p | L1 бесплатно через торрент

  • Поучаствуй (в качестве покупателя) в любых пяти совместных покупках (кроме завершённых и "Моментальных") и получи группу "Новичок" навсегда -> ссылка на раздел
  • Получай до 480 рублей за каждого приглашенного пользователя!
    представляем Вам очередное расширение партнерской программы, подробности описаны тут -> ссылка
  • 90% материалов доступно к скачиванию после простой регистрации!
    Если же ты хочешь скачивать материалы без требования оставлять отзывы то получи группу "Новичок", 10 способов повышения описаны тут -> ссылка
  • К сожалению количество битых ссылок растет и мы уже не можем их оперативно восстанавливать поэтому просим помощи у каждого нашего пользователя.
    С сегодняшнего дня, за каждую восстановленную ссылку мы заплатим Вам.
    Подробнее тут -> ссылка
  • Перенесем твои заслуги с другого ресурса!
    Мы понимаем как сложно прокачивать аккаунты на форумах, вроде раскачал аккаунт, а тут появляется ресурс в 100 раз круче но тоже с системой прокачки и снова качать аккаунт...
    Предлагаем вам перенести Ваши заслуги на другом подобном ресурсе к нам.
    Подробности описаны тут -> ссылка
  • Вы можете получать по 2.5% с каждой покупки и продажи на маркете! Подробности в теме Партнёрская программа
Если Вы не хотите скачивать, Вы всегда можетепосмотретьонлайн, просто нажмите кнопку ниже :

Открыть плеер

Torrent_Bot

Торрент-Бот
Бот форума
4 Окт 2016
92
163
20

Название: Консервный ряд
Оригинальное название: Cannery Row
Год выхода: 1982

Страна: США
Студия: Chai Productions, Metro-Goldwyn-Mayer (MGM)
Продолжительность: 02:00:09
Жанр: драма, мелодрама, комедия

Режиссер: Дэвид С. Уорд
В ролях: Ник Нолти, Дебра Уингер, Одра Линдли, Фрэнк МакРей, М. Эммет Уолш, Том Махони, Джон Маллой, Джеймс Кин, Саншайн Паркер, Сантос Моралес, ...

Перевод: любительский (одноголосый, закадровый) Воробьёв Сергей

О фильме: Фильм повествует историю доктора биологии, живущего в небольшом городе у океана. Былые запасы рыбы, благодаря которым город процветал давно иссякли, и теперь уровень жизни и экономика городка пошли на спад. На фоне этого рассказывается история доктора, ключевые моменты его жизни: разочарование и надежда, одиночество и любовь…






Кодек: x264
Качество: BDRip 1080p
Видео: 1920x1036, 14000 kbps, 23,976 fps
Аудио #1: AC-3, 2 ch, 192 kbps (Rus) - VO Воробьёв Сергей
Аудио #2: DTS, 2 ch, 1509 kbps (Eng)
Субтитры: русские, английские

Дополнительная информация
Спасибо за исходник - porvaliparus
MediaInfo
x264 [info]: frame I:899 Avg QP:18.88 size:227795
x264 [info]: frame P:30494 Avg QP:21.17 size:110147
x264 [info]: frame B:141455 Avg QP:22.98 size: 63982
x264 [info]: consecutive B-frames: 0.7% 0.3% 3.6% 3.6% 8.6% 75.7% 3.2% 0.8% 2.0% 0.9% 0.4% 0.1% 0.0% 0.0% 0.1%

Общее
Уникальный идентификатор : 204309797645845902314259652150128636622 (0x99B4A2BEA9ABF1F0BB70B3B72AFD72CE)
Полное имя : Консервный ряд (Cannery Row) 1982 BDRip 1080p.mkv
Формат : Matroska
Версия формата : Version 2
Размер файла : 13,2 Гбайт
Продолжительность : 2 ч. 0 м.
Общий поток : 15,7 Мбит/сек
Дата кодирования : UTC 2020-08-14 07:45:28
Программа кодирования : mkvmerge v4.0.0 ('The Stars were mine') сборка от Jun 6 2010 16:18:42
Библиотека кодирования : libebml v1.0.0 + libmatroska v1.0.0

Видео
Идентификатор : 1
Формат : AVC
Формат/Информация : Advanced Video Codec
Профиль формата : [email protected]
Параметр CABAC формата : Да
Параметр ReFrames формата : 4 кадра
Идентификатор кодека : V_MPEG4/ISO/AVC
Продолжительность : 2 ч. 0 м.
Битрейт : 14,0 Мбит/сек
Ширина : 1920 пикселей
Высота : 1036 пикселей
Соотношение сторон : 1,85:1
Режим частоты кадров : Постоянный
Частота кадров : 23,976 (24000/1001) кадра/сек
Цветовое пространство : YUV
Субдискретизация насыщенности : 4:2:0
Битовая глубина : 8 бит
Тип развёртки : Прогрессивная
Бит/(Пиксели*Кадры) : 0.294
Размер потока : 11,5 Гбайт (87%)
Библиотека кодирования : x264 core 146 r2538 121396c
Настройки программы : cabac=1 / ref=4 / deblock=1:-1:-1 / analyse=0x3:0x133 / me=umh / subme=11 / psy=1 / psy_rd=1.00:0.00 / mixed_ref=1 / me_range=32 / chroma_me=1 / trellis=2 / 8x8dct=1 / cqm=0 / deadzone=21,11 / fast_pskip=0 / chroma_qp_offset=-2 / threads=12 / lookahead_threads=2 / sliced_threads=0 / nr=0 / decimate=0 / interlaced=0 / bluray_compat=0 / constrained_intra=0 / bframes=14 / b_pyramid=2 / b_adapt=2 / b_bias=0 / direct=3 / weightb=1 / open_gop=0 / weightp=2 / keyint=240 / keyint_min=23 / scenecut=40 / intra_refresh=0 / rc=2pass / mbtree=0 / bitrate=14000 / ratetol=1.0 / qcomp=0.60 / qpmin=0 / qpmax=69 / qpstep=4 / cplxblur=20.0 / qblur=0.5 / ip_ratio=1.40 / pb_ratio=1.30 / aq=2:0.80
Язык : English
Default : Нет
Forced : Нет

Аудио #1
Идентификатор : 2
Формат : AC-3
Формат/Информация : Audio Coding 3
Расширение режима : CM (complete main)
Параметр Endianness формата : Big
Идентификатор кодека : A_AC3
Продолжительность : 2 ч. 0 м.
Вид битрейта : Постоянный
Битрейт : 192 Кбит/сек
Каналы : 2 канала
Расположение каналов : Front: L R
Частота : 48,0 КГц
Частота кадров : 31,250 кадров/сек (1536 spf)
Метод сжатия : С потерями
Размер потока : 165 Мбайт (1%)
Заголовок : VO Воробьёв Сергей
Язык : Russian
Default : Нет
Forced : Нет

Аудио #2
Идентификатор : 3
Формат : DTS
Формат/Информация : Digital Theater Systems
Режим : 16
Параметр Endianness формата : Big
Идентификатор кодека : A_DTS
Продолжительность : 2 ч. 0 м.
Вид битрейта : Постоянный
Битрейт : 1509 Кбит/сек
Каналы : 2 канала
Расположение каналов : Front: L R
Частота : 48,0 КГц
Частота кадров : 93,750 кадра/сек (512 spf)
Битовая глубина : 24 бит
Метод сжатия : С потерями
Размер потока : 1,27 Гбайт (10%)
Язык : English
Default : Нет
Forced : Нет

Текст #1
Идентификатор : 4
Формат : UTF-8
Идентификатор кодека : S_TEXT/UTF8
Идентификатор кодека/Информация : UTF-8 Plain Text
Язык : Russian
Default : Нет
Forced : Нет

Текст #2
Идентификатор : 5
Формат : UTF-8
Идентификатор кодека : S_TEXT/UTF8
Идентификатор кодека/Информация : UTF-8 Plain Text
Заголовок : SDH
Язык : English
Default : Нет
Forced : Нет

Меню
00:00:00.000 : en:01
00:02:40.243 : en:02
00:09:19.517 : en:03
00:13:34.480 : en:04
00:18:28.607 : en:05
00:23:07.219 : en:06
00:27:32.734 : en:07
00:31:31.890 : en:08
00:34:23.853 : en:09
00:38:30.308 : en:10
00:42:10.528 : en:11
00:50:18.557 : en:12
00:55:12.226 : en:13
01:00:18.031 : en:14
01:04:05.842 : en:15
01:08:35.111 : en:16
01:11:44.342 : en:17
01:14:11.405 : en:18
01:17:21.428 : en:19
01:21:13.827 : en:20
01:25:12.566 : en:21
01:29:44.379 : en:22
01:33:57.465 : en:23
01:39:46.105 : en:24
01:44:04.155 : en:25
01:50:12.981 : en:26
01:52:48.178 : en:27
01:57:51.064 : en:28

 

Вложения

  • 66,8 KB Просмотры: 0
    Личеров 0
    Сидеров 0
    Файлов 1
    Объем 13,2 GB

Привет!

Мы группа людей которые решили помочь другим в решении их проблем, а так же пользователям с поиском самых свежих и качественных инфопродуктов. За 4 с небольшим месяца мы создали этот форум на который заходят ежедневно тысячи человек и посещаемость постоянно растёт. Мы создали панель лицензирования для защиты PHP скриптов от воровства и SEO панель для мониторинга наших сайтов и выбора верной стратегии их развития. Мы надеемся что то что мы создали пригодится Вам и возможно Вы поможете нам развиваться и совершенствоваться вместе с Вами.

Статистика форума

Темы
406.678
Сообщения
465.125
Пользователи
84.737
Новый пользователь
Mo0dak

Приложения форума для iOS и Android


У ркн там нет власти ;)
Приватные разговоры
Помощь Пользователи
    Вы не присоединились ни к одной комнате.