За последнюю неделю опубликовано 16 новых материалов.
Инструкция новичку Путеводитель по форуму Прокси для Telegram Показать подсказки , это бомба!

Скачать Конец света / End of Days (1999) WEB-DLRip-AVC от ExKinoRay | D | Open Matte бесплатно через торрент

  • Поучаствуй (в качестве покупателя) в любых пяти совместных покупках (кроме завершённых и "Моментальных") и получи группу "Новичок" навсегда -> ссылка на раздел
  • Получай до 480 рублей за каждого приглашенного пользователя!
    представляем Вам очередное расширение партнерской программы, подробности описаны тут -> ссылка
  • 90% материалов доступно к скачиванию после простой регистрации!
    Если же ты хочешь скачивать материалы без требования оставлять отзывы то получи группу "Новичок", 10 способов повышения описаны тут -> ссылка
  • К сожалению количество битых ссылок растет и мы уже не можем их оперативно восстанавливать поэтому просим помощи у каждого нашего пользователя.
    С сегодняшнего дня, за каждую восстановленную ссылку мы заплатим Вам.
    Подробнее тут -> ссылка
  • Перенесем твои заслуги с другого ресурса!
    Мы понимаем как сложно прокачивать аккаунты на форумах, вроде раскачал аккаунт, а тут появляется ресурс в 100 раз круче но тоже с системой прокачки и снова качать аккаунт...
    Предлагаем вам перенести Ваши заслуги на другом подобном ресурсе к нам.
    Подробности описаны тут -> ссылка
  • Вы можете получать по 2.5% с каждой покупки и продажи на маркете! Подробности в теме Партнёрская программа
Если Вы не хотите скачивать, Вы всегда можетепосмотретьонлайн, просто нажмите кнопку ниже :

Открыть плеер

Torrent_Bot

Торрент-Бот
Бот форума
4 Окт 2016
122
116
20



Информация о фильме
Название: Конец света
Оригинальное название: End of Days
Год выхода: 1999
Жанр: Ужасы, фэнтези, боевик, детектив
Режиссер: Питер Хайамс
В ролях: Арнольд Шварценеггер, Габриэль Бирн, Робин Танни, Кевин Поллак, Си Си Эйч Паундер, Деррик О'Коннор, Дэвид Уайзенберг, Райнер Джадд, Мириам Марголис, Удо Кир, Майкл О'Хаган, Марк Марголис, Джек Ширер, Род Стайгер, Ева Сигалл, Лучиано Миеле, Роберт Лессер, Гэри Энтони Уильямс, Джон Нилсен, Эллиот Голдваг, Илэйн Коррал Кендалл, Дениса Д. Льюис, Ллойд Гарровэй, Рени Олстэд, Мэтт Галлини, Ван Кваттро, Яннис Богрис, Чарльз А. Тамбурро, Линда Пайн, Стив Крамер, Джон Тимоти Ботка, Уолтер Фон Хун, Линн Мари Сейджер, Мелисса Маскара, Виктор Варнадо

О фильме:
Ее появление на свет в своих трудах предсказывали монахи-отшельники. Ее миссия ужасна: ей предстоит стать матерью Антихриста. Девочка родилась, а Князь Тьмы вырвался на свободу, вселившись в тело респектабельного бизнесмена. Пророчество сбылось. Удастся ли предотвратить наступление эры зла герою Арнольда Шварценеггера – копу, который не боится, ни Бога, ни дьявола?



Страна: США
Студия: Beacon Communications LLC, Universal Pictures
Продолжительность: 02:02:21
Перевод: Профессиональный (полное дублирование)

Файл
Формат: MKV
Качество: WEB-DLRip-AVC
Видео: MPEG-4 AVC, 704x396, - 774 Кбит/с
Аудио: AAC-HE, 2 ch, - 76 Кбит/с
Субтитры: Нет


MI
Общее
Уникальный идентификатор : 148594081881057783744833298480140471125 (0x6FCA2DDF174020DCB56F5EF563A54B55)
Полное имя : D:MOVIESKonec.sveta.1999.WEB-DLRip-AVC.Open.Matte.ExKinoRay.mkv
Формат : Matroska
Версия формата : Version 4 / Version 2
Размер файла : 745 Мбайт
Продолжительность : 2 ч. 2 м.
Общий поток : 851 Кбит/сек
Дата кодирования : UTC 2020-01-21 05:02:39
Программа кодирования : mkvmerge v35.0.0 ('All The Love In The World') 64-bit
Библиотека кодирования : libebml v1.3.9 + libmatroska v1.5.2

Видео
Идентификатор : 1
Формат : AVC
Формат/Информация : Advanced Video Codec
Профиль формата : High@L4.1
Параметр CABAC формата : Да
Параметр RefFrames формата : 12 кадров
Идентификатор кодека : V_MPEG4/ISO/AVC
Продолжительность : 2 ч. 2 м.
Битрейт : 774 Кбит/сек
Ширина : 704 пикселя
Высота : 396 пикселей
Соотношение сторон : 16:9
Режим частоты кадров : Постоянный
Частота кадров : 23,976 (24000/1001) кадра/сек
Цветовое пространство : YUV
Субдискретизация насыщенности : 4:2:0
Битовая глубина : 8 бит
Тип развёртки : Прогрессивная
Бит/(Пиксели*Кадры) : 0.116
Размер потока : 677 Мбайт (91%)
Библиотека кодирования : x264 core 159 r2991 1771b55
Настройки программы : cabac=1 / ref=12 / deblock=1:-3:-2 / analyse=0x3:0x133 / me=umh / subme=11 / psy=1 / psy_rd=1.00:0.14 / mixed_ref=1 / me_range=32 / chroma_me=1 / trellis=2 / 8x8dct=1 / cqm=0 / deadzone=21,11 / fast_pskip=0 / chroma_qp_offset=-3 / threads=6 / lookahead_threads=1 / sliced_threads=0 / nr=0 / decimate=0 / interlaced=0 / bluray_compat=0 / constrained_intra=0 / bframes=12 / b_pyramid=2 / b_adapt=2 / b_bias=0 / direct=3 / weightb=1 / open_gop=0 / weightp=2 / keyint=240 / keyint_min=23 / scenecut=40 / intra_refresh=0 / rc=2pass / mbtree=0 / bitrate=774 / ratetol=1.0 / qcomp=0.60 / qpmin=0 / qpmax=69 / qpstep=4 / cplxblur=20.0 / qblur=0.5 / ip_ratio=1.40 / pb_ratio=1.30 / aq=1:1.00
Default : Да
Forced : Нет

Аудио
Идентификатор : 2
Формат : AAC
Формат/Информация : Advanced Audio Codec
Профиль формата : HE-AAC / LC
Идентификатор кодека : A_AAC
Продолжительность : 2 ч. 2 м.
Битрейт : 76,0 Кбит/сек
Каналы : 2 канала
Расположение каналов : Front: L R
Частота : 48,0 КГц / 24,0 КГц
Частота кадров : 23,438 кадра/сек (1024 SPF)
Метод сжатия : С потерями
Задержка видео : 31 мс.
Размер потока : 66,6 Мбайт (9%)
Default : Да
Forced : Нет

Меню
00:00:00.000 : en:(Unnamed scene)
00:01:16.000 : en:(Unnamed scene)
00:03:50.000 : en:(Unnamed scene)
00:06:05.000 : en:(Unnamed scene)
00:09:01.000 : en:(Unnamed scene)
00:13:30.000 : en:(Unnamed scene)
00:16:01.000 : en:(Unnamed scene)
00:18:49.000 : en:(Unnamed scene)
00:22:23.000 : en:(Unnamed scene)
00:25:25.000 : en:(Unnamed scene)
00:29:59.000 : en:(Unnamed scene)
00:31:41.000 : en:(Unnamed scene)
00:33:56.000 : en:(Unnamed scene)
00:35:43.000 : en:(Unnamed scene)
00:38:47.000 : en:(Unnamed scene)
00:42:15.000 : en:(Unnamed scene)
00:44:51.000 : en:(Unnamed scene)
00:46:17.000 : en:(Unnamed scene)
00:47:45.000 : en:(Unnamed scene)
00:52:41.000 : en:(Unnamed scene)
00:55:35.000 : en:(Unnamed scene)
00:59:30.000 : en:(Unnamed scene)
01:03:19.000 : en:(Unnamed scene)
01:04:48.000 : en:(Unnamed scene)
01:09:51.000 : en:(Unnamed scene)
01:18:27.000 : en:(Unnamed scene)
01:20:30.000 : en:(Unnamed scene)
01:23:36.000 : en:(Unnamed scene)
01:28:11.000 : en:(Unnamed scene)
01:30:15.000 : en:(Unnamed scene)
01:31:31.000 : en:(Unnamed scene)
01:34:16.000 : en:(Unnamed scene)
01:39:38.000 : en:(Unnamed scene)
01:45:51.000 : en:(Unnamed scene)
01:48:44.000 : en:(Unnamed scene)
01:51:24.000 : en:(Unnamed scene)
01:53:57.000 : en:(Unnamed scene)
01:56:37.000 : en:(Unnamed scene)
Скриншоты

 

Вложения

  • 15,6 KB Просмотры: 0
    Личеров 0
    Сидеров 0
    Файлов 1
    Объем 745 MB

Привет!

Мы группа людей которые решили помочь другим в решении их проблем, а так же пользователям с поиском самых свежих и качественных инфопродуктов. За 4 с небольшим месяца мы создали этот форум на который заходят ежедневно тысячи человек и посещаемость постоянно растёт. Мы создали панель лицензирования для защиты PHP скриптов от воровства и SEO панель для мониторинга наших сайтов и выбора верной стратегии их развития. Мы надеемся что то что мы создали пригодится Вам и возможно Вы поможете нам развиваться и совершенствоваться вместе с Вами.

Статистика форума

Темы
385.067
Сообщения
430.517
Пользователи
63.220
Новый пользователь
Count

Приложения форума для iOS и Android


У ркн там нет власти ;)
Приватные разговоры
Помощь Пользователи
    Вы не присоединились ни к одной комнате.