За последнюю неделю опубликовано 122 новых материалов.
Инструкция новичку Путеводитель по форуму Прокси для Telegram Показать подсказки , это бомба!

Скачать Конец сезона (2019) WEB-DL 1080p | iTunes бесплатно через торрент

  • Поучаствуй (в качестве покупателя) в любых пяти совместных покупках (кроме завершённых и "Моментальных") и получи группу "Новичок" навсегда -> ссылка на раздел
  • Получай до 480 рублей за каждого приглашенного пользователя!
    представляем Вам очередное расширение партнерской программы, подробности описаны тут -> ссылка
  • 90% материалов доступно к скачиванию после простой регистрации!
    Если же ты хочешь скачивать материалы без требования оставлять отзывы то получи группу "Новичок", 10 способов повышения описаны тут -> ссылка
  • К сожалению количество битых ссылок растет и мы уже не можем их оперативно восстанавливать поэтому просим помощи у каждого нашего пользователя.
    С сегодняшнего дня, за каждую восстановленную ссылку мы заплатим Вам.
    Подробнее тут -> ссылка
  • Перенесем твои заслуги с другого ресурса!
    Мы понимаем как сложно прокачивать аккаунты на форумах, вроде раскачал аккаунт, а тут появляется ресурс в 100 раз круче но тоже с системой прокачки и снова качать аккаунт...
    Предлагаем вам перенести Ваши заслуги на другом подобном ресурсе к нам.
    Подробности описаны тут -> ссылка
  • Вы можете получать по 2.5% с каждой покупки и продажи на маркете! Подробности в теме Партнёрская программа
Если Вы не хотите скачивать, Вы всегда можетепосмотретьонлайн, просто нажмите кнопку ниже :

Открыть плеер

Torrent_Bot

Торрент-Бот
Бот форума
4 Окт 2016
124
96
20





Информация о фильме
Название: Конец сезона
Год выпуска: 2019
Жанр:Триллер, мелодрама
Режиссёр: Константин Худяков
В ролях: Юлия Снигирь, Юлия Пересильд, Анна Чиповская, Евгений Цыганов, Сергей Колтаков, Андрюс Паулавичюс, Габриэле Куодите, Сергей Дьяков, Сергей Кореньков, Наталья Кудряшова


Описание:
Три сестры волею обстоятельств оказались за пределами России и живут в маленьком прибалтийском городке. Они, как и героини знаменитой пьесы Антона Павловича Чехова, живут мечтой о возвращении в Москву и ищут любовь, однако у судьбы на них свои планы. Одну никак не оставляет прошлое, другая ищет простого женского счастья, а у третьей — кризис семейной жизни. Тем временем, на тихом побережье появляется опасный убийца… Светлая меланхолия сменяется взрывами человеческих эмоций и нешуточной борьбой за жизнь.






Страна: Россия
Студия: Мосфильм, Вертикаль
Продолжительность: 01:34:13
Перевод: Не требуется


Файл
Формат: MKV
Качество: WEB-DL 1080p
Видео: 1920x856 (2,25:1), 24 fps, MPEG-4 AVC ~ 4464 Кbps avg, 0.113 bit/pixel
Аудио: AC3, 48 kHz, 6 ch, ~384.00 kbps avg | русский | iTunes

Субтитры: Отсутствуют
Семпл


Инфо-файл
Общее
Уникальный идентификатор : 251208508340873726077249299104514899315 (0xBCFCFFB49FC04A668769A44AD342FD73)
Полное имя : G:KONEC_SEZONA_2019_WEB-DL_1080p-BLUEBIRD.mkv
Формат : Matroska
Версия формата : Version 4
Размер файла : 3,26 Гбайт
Продолжительность : 1 ч. 34 м.
Общий поток : 4947 Кбит/сек
Название фильма : KONEC_SEZONA_2019_WEB-DL_1080p-BLUEBIRD
Дата кодирования : UTC 2019-12-25 19:40:10
Программа кодирования : mkvmerge v6.9.1 ('Blue Panther') 32bit built on Apr 18 2014 18:15:44
Библиотека кодирования : libebml v1.3.0 + libmatroska v1.4.1
Обложка : Yes
Attachments : cover3.png

Видео
Идентификатор : 1
Формат : AVC
Формат/Информация : Advanced Video Codec
Профиль формата : High@L4
Настройки формата : CABAC / 5 Ref Frames
Параметр CABAC формата : Да
Параметр RefFrames формата : 5 кадров
Идентификатор кодека : V_MPEG4/ISO/AVC
Продолжительность : 1 ч. 34 м.
Битрейт : 4464 Кбит/сек
Ширина : 1920 пикселей
Высота : 856 пикселей
Соотношение сторон : 2,25:1
Режим частоты кадров : Постоянный
Частота кадров : 24,000 кадра/сек
Цветовое пространство : YUV
Субдискретизация насыщенности : 4:2:0
Битовая глубина : 8 бит
Тип развёртки : Прогрессивная
Бит/(Пиксели*Кадры) : 0.113
Размер потока : 2,94 Гбайт (90%)
Заголовок : KONEC_SEZONA_2019_WEB-DL_1080p-BLUEBIRD
Язык : English
Default : Да
Forced : Нет
Цветовой диапазон : Limited
Основные цвета : BT.709
Характеристики трансфера : BT.709
Коэффициенты матрицы : BT.709

Аудио
Идентификатор : 2
Формат : AC-3
Формат/Информация : Audio Coding 3
Коммерческое название : Dolby Digital
Идентификатор кодека : A_AC3
Продолжительность : 1 ч. 34 м.
Вид битрейта : Постоянный
Битрейт : 384 Кбит/сек
Каналы : 6 каналов
ChannelLayout : L R C LFE Ls Rs
Частота : 48,0 КГц
Частота кадров : 31,250 кадров/сек (1536 SPF)
Метод сжатия : С потерями
Размер потока : 259 Мбайт (8%)
Заголовок : [ORIGINAL] DD 5.1 @ 384 kbps (iTunes)
Язык : Russian
Default : Да
Forced : Нет

Меню
00:00:00.000 : en:Глава 1
00:08:44.000 : en:Глава 2
00:17:08.458 : en:Глава 3
00:25:34.458 : en:Глава 4
00:34:00.458 : en:Глава 5
00:42:13.249 : en:Глава 6
00:50:16.082 : en:Глава 7
00:58:26.498 : en:Глава 8
01:06:36.873 : en:Глава 9
01:14:54.748 : en:Глава 10
01:23:38.748 : en:Глава 11
Скриншоты
 

Вложения

  • 17,2 KB Просмотры: 0
    Личеров 0
    Сидеров 0
    Файлов 1
    Объем 3,3 GB
Ваш e-mail не будет опубликован. Он потребуется для подтверждения Вашего поста.
Оформление текста Нажмите «Ввод», чтобы отправить ответ.

Привет!

Мы группа людей которые решили помочь другим в решении их проблем, а так же пользователям с поиском самых свежих и качественных инфопродуктов. За 4 с небольшим месяца мы создали этот форум на который заходят ежедневно тысячи человек и посещаемость постоянно растёт. Мы создали панель лицензирования для защиты PHP скриптов от воровства и SEO панель для мониторинга наших сайтов и выбора верной стратегии их развития. Мы надеемся что то что мы создали пригодится Вам и возможно Вы поможете нам развиваться и совершенствоваться вместе с Вами.

Статистика форума

Темы
378.775
Сообщения
418.215
Пользователи
50.055
Новый пользователь
Vell_L

Приложения форума для iOS и Android


У ркн там нет власти ;)
Приватные разговоры
Помощь Пользователи
    Вы не присоединились ни к одной комнате.