За последнюю неделю опубликовано 0 новых материалов.
Инструкция новичку Путеводитель по форуму Прокси для Telegram Показать подсказки , это бомба!

Скачать Коматозники / Flatliners (2017) BDRemux 1080p от ExKinoRay | Лицензия бесплатно через торрент

  • Поучаствуй (в качестве покупателя) в любых пяти совместных покупках (кроме завершённых и "Моментальных") и получи группу "Новичок" навсегда -> ссылка на раздел
  • Получай до 480 рублей за каждого приглашенного пользователя!
    представляем Вам очередное расширение партнерской программы, подробности описаны тут -> ссылка
  • 90% материалов доступно к скачиванию после простой регистрации!
    Если же ты хочешь скачивать материалы без требования оставлять отзывы то получи группу "Новичок", 10 способов повышения описаны тут -> ссылка
  • К сожалению количество битых ссылок растет и мы уже не можем их оперативно восстанавливать поэтому просим помощи у каждого нашего пользователя.
    С сегодняшнего дня, за каждую восстановленную ссылку мы заплатим Вам.
    Подробнее тут -> ссылка
  • Перенесем твои заслуги с другого ресурса!
    Мы понимаем как сложно прокачивать аккаунты на форумах, вроде раскачал аккаунт, а тут появляется ресурс в 100 раз круче но тоже с системой прокачки и снова качать аккаунт...
    Предлагаем вам перенести Ваши заслуги на другом подобном ресурсе к нам.
    Подробности описаны тут -> ссылка
  • Вы можете получать по 2.5% с каждой покупки и продажи на маркете! Подробности в теме Партнёрская программа
Если Вы не хотите скачивать, Вы всегда можетепосмотретьонлайн, просто нажмите кнопку ниже :

Открыть плеер

Torrent_Bot

Торрент-Бот
Бот форума
4 Окт 2016
79
196
20
3c1e485b1e5e3ead0f3e7643ec1454a0.jpg

Информация о фильме
Название: Коматозники
Оригинальное название: Flatliners
Год выхода: 2017
Жанр: Ужасы, фантастика, триллер, драма
Режиссер: Нильс Арден Оплев
В ролях: Эллен Пейдж, Диего Луна, Нина Добрев, Джеймс Нортон, Кирси Клемонс, Кифер Сазерленд, Джейкоб Соли, Анна Арден Оплев, Мигель Энтони

О фильме:
Пятеро студентов-медиков, одержимых желанием узнать, что происходит с человеком после смерти, решаются на рискованный эксперимент: на время они останавливают друг другу сердце, чтобы погрузиться в состояние клинической смерти и на собственном опыте понять, что происходит с человеком по ту сторону. Но они забывают, что, переступив черту, нужно быть готовым к последствиям.


ac59de6062cb42525a44bacd43ad522a.gif

Страна: США
Студия: Cross Creek Pictures, Furthur Films, Laurence Mark Productions, Screen Gems
Продолжительность: 01:49:46
Перевод: Дублированный | Лицензия

Файл
Качество: BDRemux 1080p
Видео: MPEG-4 AVC, 1920x804, 24.9 Mbit/s, 23.976 fps
Звук:
Аудио #01: 48 kHz, AC3, 5.1, 448 Kbps | Дублированный | RUS |
Аудио #02: 48 kHz, DTS-HD MA, 5.1, 2196 Kbps | Оригинал | ENG |
Субтитры: Русские (forced, full), английские

6fff91892161dd234eabb09deb48c716.png94e8a053f4aac7bf879b4f21fd5e4ec8.png9b61b62c097a336ad176828c8739868a.pngbf86a658a927e501fbae29c169be26d9.png5fb48d6b73970bf7aadf5d893cdd1c04.png

MI
General
Unique ID : 305417249271410252049606834952233129931 (0xE5C538FBAF89E0ABF1AB1B9666C997CB)
Complete name : C:Video111Flatliners.2017.Lic.BDREMUX.1080p.ExKinoRay.mkv
Format : Matroska
Format version : Version 4 / Version 2
File size : 21.1 GiB
Duration : 1 h 49 min
Overall bit rate mode : Variable
Overall bit rate : 27.5 Mb/s
Movie name : Flatliners 2017 from ExKinoRay
Encoded date : UTC 2018-03-05 20:14:12
Writing application : mkvmerge v21.0.0 ('Tardigrades Will Inherit The Earth') 64-bit
Writing library : libebml v1.3.5 + libmatroska v1.4.8

Video
ID : 1
Format : AVC
Format/Info : Advanced Video Codec
Format profile : [email protected]
Format settings : CABAC / 2 Ref Frames
Format settings, CABAC : Yes
Format settings, ReFrames : 2 frames
Format settings, GOP : M=1, N=10
Codec ID : V_MPEG4/ISO/AVC
Duration : 1 h 49 min
Bit rate mode : Variable
Bit rate : 24.9 Mb/s
Width : 1 920 pixels
Height : 1 080 pixels
Display aspect ratio : 16:9
Frame rate mode : Constant
Frame rate : 23.976 (24000/1001) FPS
Color space : YUV
Chroma subsampling : 4:2:0
Bit depth : 8 bits
Scan type : Progressive
Bits/(Pixel*Frame) : 0.501
Stream size : 19.1 GiB (90%)
Language : English
Default : Yes
Forced : No

Audio #1
ID : 2
Format : AC-3
Format/Info : Audio Coding 3
Codec ID : A_AC3
Duration : 1 h 49 min
Bit rate mode : Constant
Bit rate : 448 kb/s
Channel(s) : 6 channels
Channel positions : Front: L C R, Side: L R, LFE
Sampling rate : 48.0 kHz
Frame rate : 31.250 FPS (1536 SPF)
Bit depth : 16 bits
Compression mode : Lossy
Stream size : 352 MiB (2%)
Title : Dub [License]
Language : Russian
Service kind : Complete Main
Default : Yes
Forced : No

Audio #2
ID : 3
Format : DTS
Format/Info : Digital Theater Systems
Format profile : MA / Core
Codec ID : A_DTS
Duration : 1 h 49 min
Bit rate mode : Variable / Constant
Bit rate : 2 196 kb/s / 1 509 kb/s
Channel(s) : 6 channels
Channel positions : Front: L C R, Side: L R, LFE
Sampling rate : 48.0 kHz
Frame rate : 93.750 FPS (512 SPF)
Bit depth : 16 bits
Compression mode : Lossless / Lossy
Stream size : 1.68 GiB (8%)
Title : Original
Language : English
Default : No
Forced : No

Text #1
ID : 4
Format : UTF-8
Codec ID : S_TEXT/UTF8
Codec ID/Info : UTF-8 Plain Text
Duration : 1 h 47 min
Bit rate : 0 b/s
Count of elements : 10
Stream size : 473 Bytes (0%)
Title : Forced
Language : Russian
Default : Yes
Forced : No

Text #2
ID : 5
Format : UTF-8
Codec ID : S_TEXT/UTF8
Codec ID/Info : UTF-8 Plain Text
Duration : 1 h 47 min
Bit rate : 75 b/s
Count of elements : 1244
Stream size : 59.4 KiB (0%)
Title : Full
Language : Russian
Default : No
Forced : No

Text #3
ID : 6
Format : UTF-8
Codec ID : S_TEXT/UTF8
Codec ID/Info : UTF-8 Plain Text
Duration : 1 h 43 min
Bit rate : 47 b/s
Count of elements : 1241
Stream size : 36.1 KiB (0%)
Title : Full
Language : English
Default : No
Forced : No

Text #4
ID : 7
Format : UTF-8
Codec ID : S_TEXT/UTF8
Codec ID/Info : UTF-8 Plain Text
Duration : 1 h 46 min
Bit rate : 59 b/s
Count of elements : 1693
Stream size : 46.5 KiB (0%)
Title : SDH
Language : English
Default : No
Forced : No

Menu #1
00:00:00.000 : en:00:00:00.000
00:05:48.557 : en:00:05:48.557
00:11:21.097 : en:00:11:21.097
00:18:01.205 : en:00:18:01.205
00:26:41.600 : en:00:26:41.600
00:35:10.734 : en:00:35:10.734
00:42:31.382 : en:00:42:31.382
00:48:10.971 : en:00:48:10.971
00:55:32.621 : en:00:55:32.621
01:03:49.993 : en:01:03:49.993
01:09:43.262 : en:01:09:43.262
01:16:20.868 : en:01:16:20.868
01:24:18.011 : en:01:24:18.011
01:30:00.186 : en:01:30:00.186
01:36:06.094 : en:01:36:06.094
01:41:54.692 : en:01:41:54.692

Menu #2
00:00:00.000 : en:00:00:00.000
00:05:48.557 : en:00:05:48.557
00:11:21.097 : en:00:11:21.097
00:18:01.205 : en:00:18:01.205
00:26:41.600 : en:00:26:41.600
00:35:10.734 : en:00:35:10.734
00:42:31.382 : en:00:42:31.382
00:48:10.971 : en:00:48:10.971
00:55:32.621 : en:00:55:32.621
01:03:49.993 : en:01:03:49.993
01:09:43.262 : en:01:09:43.262
01:16:20.868 : en:01:16:20.868
01:24:18.011 : en:01:24:18.011
01:30:00.186 : en:01:30:00.186
01:36:06.094 : en:01:36:06.094
01:41:54.692 : en:01:41:54.692

Релиз от: 784e0fca936493fe2f2fa3ae77066cd7.gifАвтор релиза: c2188032d3d185965321dd042c73d7ef.gif
Подпишись на меня, кликни по картинке > : e27548d632e237907e347729ce16b142.gif
 

Вложения

Привет!

Мы группа людей которые решили помочь другим в решении их проблем, а так же пользователям с поиском самых свежих и качественных инфопродуктов. За 4 с небольшим месяца мы создали этот форум на который заходят ежедневно тысячи человек и посещаемость постоянно растёт. Мы создали панель лицензирования для защиты PHP скриптов от воровства и SEO панель для мониторинга наших сайтов и выбора верной стратегии их развития. Мы надеемся что то что мы создали пригодится Вам и возможно Вы поможете нам развиваться и совершенствоваться вместе с Вами.

Статистика форума

Темы
414.370
Сообщения
475.396
Пользователи
96.561
Новый пользователь
starushka

Приложения форума для iOS и Android


У ркн там нет власти ;)
Приватные разговоры
Помощь Пользователи
    Вы не присоединились ни к одной комнате.