За последнюю неделю опубликовано 65 новых материалов.
Инструкция новичку Путеводитель по форуму Прокси для Telegram Показать подсказки , это бомба!

Скачать Коллекторы 2 / The Debt Collector 2 (2020) WEB-DLRip 720p от ExKinoRay | iTunes бесплатно через торрент

  • Поучаствуй (в качестве покупателя) в любых пяти совместных покупках (кроме завершённых и "Моментальных") и получи группу "Новичок" навсегда -> ссылка на раздел
  • Получай до 480 рублей за каждого приглашенного пользователя!
    представляем Вам очередное расширение партнерской программы, подробности описаны тут -> ссылка
  • 90% материалов доступно к скачиванию после простой регистрации!
    Если же ты хочешь скачивать материалы без требования оставлять отзывы то получи группу "Новичок", 10 способов повышения описаны тут -> ссылка
  • К сожалению количество битых ссылок растет и мы уже не можем их оперативно восстанавливать поэтому просим помощи у каждого нашего пользователя.
    С сегодняшнего дня, за каждую восстановленную ссылку мы заплатим Вам.
    Подробнее тут -> ссылка
  • Перенесем твои заслуги с другого ресурса!
    Мы понимаем как сложно прокачивать аккаунты на форумах, вроде раскачал аккаунт, а тут появляется ресурс в 100 раз круче но тоже с системой прокачки и снова качать аккаунт...
    Предлагаем вам перенести Ваши заслуги на другом подобном ресурсе к нам.
    Подробности описаны тут -> ссылка
  • Вы можете получать по 2.5% с каждой покупки и продажи на маркете! Подробности в теме Партнёрская программа
Если Вы не хотите скачивать, Вы всегда можетепосмотретьонлайн, просто нажмите кнопку ниже :

Открыть плеер

Torrent_Bot

Торрент-Бот
Бот форума
4 Окт 2016
92
163
20




Название: Коллекторы 2
Оригинальное название: The Debt Collector 2
Год выхода: 2020
Жанр: боевик, криминал, комедия
Режиссер: Джесси Джонсон
В ролях: Скотт Эдкинс, Луис Мэндилор, Владимир Кулих, Нг Мэйлин, Мариано Мендоса, Катрин Блэк, Демитра Сили, Ски Карр, Куэто Йеска, Robert Dobson

О фильме: Сборщики долгов Френч и Сью приступают к работе, делая то, что у них получается лучше всего - ломают черепа и кости, гоняясь за разными подонками, которые должны деньги их боссу Томми. Напарников вызывают в Лас-Вегас, чтобы они забрали долг у нечистой на руку владелицы казино, которая, как оказалось, является бывшей любовницей Сью. Тем временем на тропу войны выходит наркобарон, жаждущий убить Фрэнчи и Сью и тем самым отомстить за смерть брата.




Страна: США
Студия: DC2 Productions, Leverage Film Funding, Tarzana Productions
Продолжительность: 01:37:08
Перевод: Дублированный | iTunes

Формат: MKV
Качество: WEB-DLRip 720p
Видео: MPEG-4 AVC, 1280x536 (2.40:1), 23.976 fps, 3306 Kbps, 0.201 bit/pixel
Аудио: 48 kHz, AC3, 5.1, 384 Kbps | iTunes | RUS |
Субтитры: Русские


ОтчетМедиаИнфо
General
Unique ID : 204992146250401197712994889473099233693 (0x9A380D20DE5EB2AEA7BCDE6E831AF99D)
Complete name : F:The.Debt.Collector.2.2020.WEB-DL.720p. ExKinoRay.mkv
Format : Matroska
Format version : Version 2
File size : 2.55 GiB
Duration : 1 h 37 min
Overall bit rate : 3 765 kb/s
Movie name : The Debt Collector 2 2020 from ExKinoRay
Encoded date : UTC 2020-05-30 02:21:50
Writing application : mkvmerge v5.6.0 ('Kenya Kane') built on May 27 2012 16:44:04
Writing library : libebml v1.2.3 + libmatroska v1.3.0

Video
ID : 1
Format : AVC
Format/Info : Advanced Video Codec
Format profile : [email protected]
Format settings, CABAC : Yes
Format settings, ReFrames : 12 frames
Codec ID : V_MPEG4/ISO/AVC
Duration : 1 h 37 min
Bit rate : 3 306 kb/s
Width : 1 280 pixels
Height : 536 pixels
Display aspect ratio : 2.40:1
Frame rate mode : Constant
Frame rate : 24.000 FPS
Color space : YUV
Chroma subsampling : 4:2:0
Bit depth : 8 bits
Scan type : Progressive
Bits/(Pixel*Frame) : 0.201
Stream size : 2.24 GiB (88%)
Title : Enigma
Writing library : x264 core 152 r2851 ba24899
Encoding settings : cabac=1 / ref=12 / deblock=1:-2:-2 / analyse=0x3:0x113 / me=umh / subme=10 / psy=1 / psy_rd=1.05:0.10 / mixed_ref=1 / me_range=32 / chroma_me=1 / trellis=2 / 8x8dct=1 / cqm=0 / deadzone=21,11 / fast_pskip=1 / chroma_qp_offset=-3 / threads=12 / lookahead_threads=2 / sliced_threads=0 / nr=0 / decimate=1 / interlaced=0 / bluray_compat=0 / constrained_intra=0 / bframes=9 / b_pyramid=2 / b_adapt=2 / b_bias=0 / direct=1 / weightb=1 / open_gop=0 / weightp=2 / keyint=240 / keyint_min=24 / scenecut=40 / intra_refresh=0 / rc=crf / mbtree=0 / crf=17.5 / qcomp=0.60 / qpmin=0 / qpmax=51 / qpstep=4 / ip_ratio=1.40 / pb_ratio=1.30 / aq=1:1.00
Language : English
Default : Yes
Forced : No

Audio
ID : 2
Format : AC-3
Format/Info : Audio Coding 3
Mode extension : CM (complete main)
Format settings, Endianness : Big
Codec ID : A_AC3
Duration : 1 h 37 min
Bit rate mode : Constant
Bit rate : 384 kb/s
Channel(s) : 6 channels
Channel positions : Front: L C R, Side: L R, LFE
Sampling rate : 48.0 kHz
Frame rate : 31.250 FPS (1536 spf)
Compression mode : Lossy
Stream size : 267 MiB (10%)
Title : iTunes
Language : Russian
Default : Yes
Forced : Yes

Text
ID : 3
Format : UTF-8
Codec ID : S_TEXT/UTF8
Codec ID/Info : UTF-8 Plain Text
Language : Russian
Default : No
Forced : No

Menu
00:00:00.000 : ru:Глава 1
00:08:09.416 : ru:Глава 2
00:16:38.916 : ru:Глава 3
00:25:00.916 : ru:Глава 4
00:33:26.666 : ru:Глава 5
00:41:45.541 : ru:Глава 6
00:50:05.666 : ru:Глава 7
00:58:08.041 : ru:Глава 8
01:06:18.332 : ru:Глава 9
01:14:22.332 : ru:Глава 10
01:22:37.790 : ru:Глава 11
01:30:10.790 : ru:Глава 12




Релиз от:

Автор релиза:
 

Вложения

  • 13,8 KB Просмотры: 0
    Личеров 0
    Сидеров 0
    Файлов 1
    Объем 2,6 GB

Привет!

Мы группа людей которые решили помочь другим в решении их проблем, а так же пользователям с поиском самых свежих и качественных инфопродуктов. За 4 с небольшим месяца мы создали этот форум на который заходят ежедневно тысячи человек и посещаемость постоянно растёт. Мы создали панель лицензирования для защиты PHP скриптов от воровства и SEO панель для мониторинга наших сайтов и выбора верной стратегии их развития. Мы надеемся что то что мы создали пригодится Вам и возможно Вы поможете нам развиваться и совершенствоваться вместе с Вами.

Статистика форума

Темы
406.671
Сообщения
465.116
Пользователи
84.730
Новый пользователь
Станислав788

Приложения форума для iOS и Android


У ркн там нет власти ;)
Приватные разговоры
Помощь Пользователи
    Вы не присоединились ни к одной комнате.