За последнюю неделю опубликовано 52 новых материалов.
Инструкция новичку Путеводитель по форуму Прокси для Telegram Показать подсказки , это бомба!

Скачать Коллекторы 2 / The Debt Collector 2 (2020) WEB-DL 1080p от селезень | iTunes бесплатно через торрент

  • Поучаствуй (в качестве покупателя) в любых пяти совместных покупках (кроме завершённых и "Моментальных") и получи группу "Новичок" навсегда -> ссылка на раздел
  • Получай до 480 рублей за каждого приглашенного пользователя!
    представляем Вам очередное расширение партнерской программы, подробности описаны тут -> ссылка
  • 90% материалов доступно к скачиванию после простой регистрации!
    Если же ты хочешь скачивать материалы без требования оставлять отзывы то получи группу "Новичок", 10 способов повышения описаны тут -> ссылка
  • К сожалению количество битых ссылок растет и мы уже не можем их оперативно восстанавливать поэтому просим помощи у каждого нашего пользователя.
    С сегодняшнего дня, за каждую восстановленную ссылку мы заплатим Вам.
    Подробнее тут -> ссылка
  • Перенесем твои заслуги с другого ресурса!
    Мы понимаем как сложно прокачивать аккаунты на форумах, вроде раскачал аккаунт, а тут появляется ресурс в 100 раз круче но тоже с системой прокачки и снова качать аккаунт...
    Предлагаем вам перенести Ваши заслуги на другом подобном ресурсе к нам.
    Подробности описаны тут -> ссылка
  • Вы можете получать по 2.5% с каждой покупки и продажи на маркете! Подробности в теме Партнёрская программа
Если Вы не хотите скачивать, Вы всегда можетепосмотретьонлайн, просто нажмите кнопку ниже :

Открыть плеер

Torrent_Bot

Торрент-Бот
Бот форума
4 Окт 2016
93
160
20


Информация о фильме
Название: Коллекторы 2
Оригинальное название: The Debt Collector 2
Год выхода: 2020
Жанр: боевик, криминал, комедия
Режиссер: Джесси Джонсон
В ролях: Скотт Эдкинс, Луис Мэндилор, Владимир Кулих, Нг Мэйлин, Мариано Мендоса, Катрин Блэк, Демитра Сили, Ски Карр, Куэто Йеска, Robert Dobson



О фильме: Сборщики долгов Френч и Сью приступают к работе, делая то, что у них получается лучше всего - ломают черепа и кости, гоняясь за разными подонками, которые должны деньги их боссу Томми. Напарников вызывают в Лас-Вегас, чтобы они забрали долг у нечистой на руку владелицы казино, которая, как оказалось, является бывшей любовницей Сью. Тем временем на тропу войны выходит наркобарон, жаждущий убить Фрэнчи и Сью и тем самым отомстить за смерть брата.

Страна: США
Студия: DC2 Productions, Leverage Film Funding, Tarzana Productions
Продолжительность: 01:37:08
Перевод: Дублированный | iTunes

Качество: WEB-DL 1080p
Видео: MPEG-4 AVC, 1920x804, 4559 Kbit/s, 24.000 fps
Аудио: 48 kHz, AC3, 5.1, 384 Kbps | iTunes | RUS |
Субтитры: Русские (Full)



MI
General
Unique ID : 321378299580261485888920369430155508332 (0xF1C73585345321FE6F73FED9BF8C3A6C)
Complete name : E:Video111The.Debt.Collector.2.WEB-DL.1080p.seleZen.mkv
Format : Matroska
Format version : Version 4
File size : 3.35 GiB
Duration : 1 h 37 min
Overall bit rate : 4 945 kb/s
Movie name : The Debt Collector 2 2020 from селезень
Encoded date : UTC 2020-05-28 20:13:12
Writing application : mkvmerge v40.0.0 ('Old Town Road + Pony') 64-bit
Writing library : libebml v1.3.9 + libmatroska v1.5.2

Video
ID : 1
Format : AVC
Format/Info : Advanced Video Codec
Format profile : [email protected]
Format settings : CABAC / 5 Ref Frames
Format settings, CABAC : Yes
Format settings, Reference : 5 frames
Codec ID : V_MPEG4/ISO/AVC
Duration : 1 h 37 min
Bit rate : 4 559 kb/s
Width : 1 920 pixels
Height : 804 pixels
Display aspect ratio : 2.40:1
Frame rate mode : Constant
Frame rate : 24.000 FPS
Color space : YUV
Chroma subsampling : 4:2:0
Bit depth : 8 bits
Scan type : Progressive
Bits/(Pixel*Frame) : 0.123
Stream size : 3.09 GiB (92%)
Language : English
Default : Yes
Forced : No
Color range : Limited
Color primaries : BT.709
Transfer characteristics : BT.709
Matrix coefficients : BT.709

Audio
ID : 2
Format : AC-3
Format/Info : Audio Coding 3
Commercial name : Dolby Digital
Codec ID : A_AC3
Duration : 1 h 37 min
Bit rate mode : Constant
Bit rate : 384 kb/s
Channel(s) : 6 channels
Channel layout : L R C LFE Ls Rs
Sampling rate : 48.0 kHz
Frame rate : 31.250 FPS (1536 SPF)
Compression mode : Lossy
Stream size : 267 MiB (8%)
Title : iTunes
Language : Russian
Service kind : Complete Main
Default : Yes
Forced : Yes

Text
ID : 3
Format : UTF-8
Codec ID : S_TEXT/UTF8
Codec ID/Info : UTF-8 Plain Text
Duration : 1 h 33 min
Bit rate : 111 b/s
Count of elements : 1759
Stream size : 76.4 KiB (0%)
Language : Russian
Default : No
Forced : No

Menu
00:00:00.000 : ru:Глава 1
00:08:09.416 : ru:Глава 2
00:16:38.916 : ru:Глава 3
00:25:00.916 : ru:Глава 4
00:33:26.666 : ru:Глава 5
00:41:45.541 : ru:Глава 6
00:50:05.666 : ru:Глава 7
00:58:08.041 : ru:Глава 8
01:06:18.332 : ru:Глава 9
01:14:22.332 : ru:Глава 10
01:22:37.790 : ru:Глава 11
01:30:10.790 : ru:Глава 12

Релиз от:

 

Вложения

  • 5,2 KB Просмотры: 0
    Личеров 0
    Сидеров 0
    Файлов 1
    Объем 3,4 GB

Привет!

Мы группа людей которые решили помочь другим в решении их проблем, а так же пользователям с поиском самых свежих и качественных инфопродуктов. За 4 с небольшим месяца мы создали этот форум на который заходят ежедневно тысячи человек и посещаемость постоянно растёт. Мы создали панель лицензирования для защиты PHP скриптов от воровства и SEO панель для мониторинга наших сайтов и выбора верной стратегии их развития. Мы надеемся что то что мы создали пригодится Вам и возможно Вы поможете нам развиваться и совершенствоваться вместе с Вами.

Статистика форума

Темы
406.648
Сообщения
465.113
Пользователи
84.625
Новый пользователь
kris_kelt

Приложения форума для iOS и Android


У ркн там нет власти ;)
Приватные разговоры
Помощь Пользователи
    Вы не присоединились ни к одной комнате.