За последнюю неделю опубликовано 91 новых материалов.
Инструкция новичку Путеводитель по форуму Прокси для Telegram Показать подсказки , это бомба!

Скачать Коллекция произведений Миядзаки Хаяо, часть 2 / Collection of Miyazaki Hayao, part 2 (1972-2011) HDRip/BDRip от rs.bandito бесплатно через торрент

  • Поучаствуй (в качестве покупателя) в любых пяти совместных покупках (кроме завершённых и "Моментальных") и получи группу "Новичок" навсегда -> ссылка на раздел
  • Получай до 480 рублей за каждого приглашенного пользователя!
    представляем Вам очередное расширение партнерской программы, подробности описаны тут -> ссылка
  • 90% материалов доступно к скачиванию после простой регистрации!
    Если же ты хочешь скачивать материалы без требования оставлять отзывы то получи группу "Новичок", 10 способов повышения описаны тут -> ссылка
  • К сожалению количество битых ссылок растет и мы уже не можем их оперативно восстанавливать поэтому просим помощи у каждого нашего пользователя.
    С сегодняшнего дня, за каждую восстановленную ссылку мы заплатим Вам.
    Подробнее тут -> ссылка
  • Перенесем твои заслуги с другого ресурса!
    Мы понимаем как сложно прокачивать аккаунты на форумах, вроде раскачал аккаунт, а тут появляется ресурс в 100 раз круче но тоже с системой прокачки и снова качать аккаунт...
    Предлагаем вам перенести Ваши заслуги на другом подобном ресурсе к нам.
    Подробности описаны тут -> ссылка
  • Вы можете получать по 2.5% с каждой покупки и продажи на маркете! Подробности в теме Партнёрская программа

Torrent_Bot

Торрент-Бот
Бот форума
4 Окт 2016
102
152
20
Коллекция произведений Миядзаки Хаяо, часть 2 / Collection of Miyazaki Hayao, part 2

Постер
Большая панда и маленькая панда / Panda! Go, Panda! / Panda Kopanda (1972)
Информация о фильме
Название: Большая панда и маленькая панда
Оригинальное название: Panda! Go, Panda! / Panda Kopanda / パンダ・コパンダ
Страна: Япония
Год выхода: 1972
Жанр: комедия, сказка
Режиссер: Такахата Исао / Takahata Isao / 高畑勲
Автор оригинала: Миядзаки Хаяо / Miyazaki Hayao / 宮崎駿

О фильме: Девочка Мимико – сирота. У нее нет ни папы, ни мамы, есть только старенькая бабушка, которой не по силам растить внучку. Но Мимико не унывает; она уверена, что справится со всем, благо готовить и стирать она умеет, а воров и разбойников не боится!
И вот однажды во двор к Мимико забирается незваный гость – детеныш панды, а за ним приходит и Папа-панда. Папа-панда – обаятельный и положительный господин, с твердыми представлениями о том, как нужно растить детей. Детей должны растить родители! А у Мимико их нет... Недолго поразмыслив, Папа-Панда решает удочерить Мимико: «Папе трудно стать мамой, а вот стать папой два раза – в этом нет ничего невозможного». © Анастасия Розанова, World Art

Студия:

Продолжительность: короткометражный фильм, 00:33:31
Перевод: Профессиональный (многоголосый закадровый) | R·U·S·C·I·C·O
Субтитры: русские (*srt) - полные: RUSCICO, форсированные: RUSCICO; английские (*srt) - полные: neo1024
Хардсаб: отсутствует

Файл
Качество: BDRip [by rs.bandito]
Формат: AVI
Видео: 720 x 544 (1.32:1), 23.976 fps, XviD build 73 ~2018 kbps avg, 0.215 bit/pixel
Аудио #1:RUS - 48 kHz, AC3 Dolby Digital, 1/0 (C) ch, ~112 kbps | R·U·S·C·I·C·O |
Аудио #2:JAP - 48 kHz, AC3 Dolby Digital, 1/0 (C) ch, ~192 kbps | Оригинал |

c0c9da32a72c7ce3f61e66248010722f.png4cda6adf7ca99d227ab2a14f9a31450c.pngeb48ba3d4a24b7293a086e443307e01a.png44dbbe93245a9ede022ee6327dbcaa90.png
e76f5170bed146fd5bb2e3668795a1c3.pnge053570048917fa4988134ce0d57e7f3.png2459150ebf20e2c463ff62593889c4a2.pngb1b978296fddb98de9ac7013d158761c.png

MediaInfo
Общее
Полное имя : Collection of Miyazaki Hayao, part 2 / Panda! Go, Panda! (1972) / Panda_Go_Panda_BDRip_MVO.avi
Формат : AVI
Формат/Информация : Audio Video Interleave
Размер файла : 560 Мбайт
Продолжительность : 33 м.
Общий поток : 2336 Кбит/сек
Название фильма : Panda! Go, Panda!
Программа кодирования : VirtualDubMod 1.5.10.3 | www.virtualdub-fr.org || (build 2550/release)

Видео
Идентификатор : 0
Формат : MPEG-4 Visual
Профиль формата : Advanced Simple@L5
Параметр BVOP формата : 1
Параметр QPel формата : Нет
Параметр GMC формата : Без точки перехода
Параметр матрицы формата : Выборочная
Идентификатор кодека : XVID
Идентификатор кодека/Подсказка : XviD
Продолжительность : 33 м.
Битрейт : 2018 Кбит/сек
Ширина : 720 пикс.
Высота : 544 пикс.
Соотношение сторон : 4:3
Частота кадров : 23,976 кадр/сек
Цветовое пространство : YUV
Подвыборка цветности : 4:2:0
Битовая глубина : 8 бит
Тип развёртки : Прогрессивная
Метод сжатия : С потерями
Бит/(Пиксели*Кадры) : 0.215
Размер потока : 484 Мбайт (86%)
Библиотека кодирования : XviD 73

Аудио #1
Идентификатор : 1
Формат : AC-3
Формат/Информация : Audio Coding 3
Расширение режима : CM (complete main)
Идентификатор кодека : 2000
Продолжительность : 33 м.
Вид битрейта : Постоянный
Битрейт : 112 Кбит/сек
Канал(ы) : 1 канал
Расположение каналов : Front: C
Частота : 48,0 КГц
Битовая глубина : 16 бит
Метод сжатия : С потерями
Размер потока : 26,9 Мбайт (5%)
Выравнивание : Разделение по промежуткам
Продолжительность промежутка : 42 мс. (1,00 видеокадр)
Время предзагрузки промежутка : 500 ms
Заголовок : Russian

Аудио #2
Идентификатор : 2
Формат : AC-3
Формат/Информация : Audio Coding 3
Расширение режима : CM (complete main)
Идентификатор кодека : 2000
Продолжительность : 33 м.
Вид битрейта : Постоянный
Битрейт : 192 Кбит/сек
Канал(ы) : 1 канал
Расположение каналов : Front: C
Частота : 48,0 КГц
Битовая глубина : 16 бит
Метод сжатия : С потерями
Размер потока : 46,0 Мбайт (8%)
Выравнивание : Разделение по промежуткам
Продолжительность промежутка : 42 мс. (1,00 видеокадр)
Время предзагрузки промежутка : 500 ms
Заголовок : Japanese
Большая панда и маленькая панда: Дождливый день в цирке / Panda! Go, Panda!: Rainy Day Circus / Panda Kopanda: Amefuri Circus no Maki (1973)
Информация о фильме
Название: Большая панда и маленькая панда: Дождливый день в цирке
Оригинальное название: Panda! Go, Panda!: Rainy Day Circus / Panda Kopanda: Amefuri Circus no Maki / パンダ・コパンダ 雨ふりサーカスの巻
Страна: Япония
Год выхода: 1973
Жанр: комедия, сказка
Режиссер: Такахата Исао / Takahata Isao / 高畑勲
Автор оригинала: Миядзаки Хаяо / Miyazaki Hayao / 宮崎駿

О фильме: Семья из двух медведей и одной девочки – Папа-Панда, Панди и Мимико – живет дружно и счастливо. Совершенно неожиданно к ним в дом забредает маленький ручной тигренок, и Мимико с пандами оказывают гостю всяческое гостеприимство. Оказывается, в их городишко приехал цирк! © Анастасия Розанова, World Art

Студия:

Продолжительность: короткометражный фильм, 00:38:08
Перевод: Профессиональный (многоголосый закадровый) | R·U·S·C·I·C·O
Субтитры: русские (*srt) - полные: RUSCICO, форсированные: RUSCICO; английские (*srt) - полные: neo1024
Хардсаб: отсутствует

Файл
Качество: BDRip [by rs.bandito]
Формат: AVI
Видео: 720 x 544 (1.32:1), 23.976 fps, XviD build 73 ~2000 kbps avg, 0.213 bit/pixel
Аудио #1:RUS - 48 kHz, AC3 Dolby Digital, 1/0 (C) ch, ~112 kbps | R·U·S·C·I·C·O |
Аудио #2:JAP - 48 kHz, AC3 Dolby Digital, 1/0 (C) ch, ~192 kbps | Оригинал |

770fea792f1cb5d6feb9baecf64943b5.pngbfc26b6b4a24ac399414e80cd911c577.png14395320713f05182e0bc332a55f6a09.pngc0559f2197938680638b7e7ff68bbc10.png
574a7dbca37160f161bb1bd0aebfcfda.png811b4e729c78e17ca1184059712c84b4.png

MediaInfo
Общее
Полное имя : Collection of Miyazaki Hayao, part 2 / Panda! Go, Panda! Rainy Day Circus (1973) / Panda_Go_Panda_Rainy_Day_Circus_BDRip_MVO.avi
Формат : AVI
Формат/Информация : Audio Video Interleave
Размер файла : 632 Мбайт
Продолжительность : 38 м.
Общий поток : 2318 Кбит/сек
Название фильма : Panda ! Go, Panda!: Rainy Day Circus
Программа кодирования : VirtualDubMod 1.5.10.2 (build 2540/release)
Библиотека кодирования : VirtualDubMod build 2540/release

Видео
Идентификатор : 0
Формат : MPEG-4 Visual
Профиль формата : Advanced Simple@L5
Параметр BVOP формата : 1
Параметр QPel формата : Нет
Параметр GMC формата : Без точки перехода
Параметр матрицы формата : Выборочная
Идентификатор кодека : XVID
Идентификатор кодека/Подсказка : XviD
Продолжительность : 38 м.
Битрейт : 2000 Кбит/сек
Ширина : 720 пикс.
Высота : 544 пикс.
Соотношение сторон : 4:3
Частота кадров : 23,976 кадр/сек
Цветовое пространство : YUV
Подвыборка цветности : 4:2:0
Битовая глубина : 8 бит
Тип развёртки : Прогрессивная
Метод сжатия : С потерями
Бит/(Пиксели*Кадры) : 0.213
Размер потока : 546 Мбайт (86%)
Библиотека кодирования : XviD 73

Аудио #1
Идентификатор : 1
Формат : AC-3
Формат/Информация : Audio Coding 3
Расширение режима : CM (complete main)
Идентификатор кодека : 2000
Продолжительность : 38 м.
Вид битрейта : Постоянный
Битрейт : 112 Кбит/сек
Канал(ы) : 1 канал
Расположение каналов : Front: C
Частота : 48,0 КГц
Битовая глубина : 16 бит
Метод сжатия : С потерями
Размер потока : 30,5 Мбайт (5%)
Выравнивание : Разделение по промежуткам
Продолжительность промежутка : 42 мс. (1,00 видеокадр)
Время предзагрузки промежутка : 500 ms
Заголовок : Russian

Аудио #2
Идентификатор : 2
Формат : AC-3
Формат/Информация : Audio Coding 3
Расширение режима : CM (complete main)
Идентификатор кодека : 2000
Продолжительность : 38 м.
Вид битрейта : Постоянный
Битрейт : 192 Кбит/сек
Канал(ы) : 1 канал
Расположение каналов : Front: C
Частота : 48,0 КГц
Битовая глубина : 16 бит
Метод сжатия : С потерями
Размер потока : 52,4 Мбайт (8%)
Выравнивание : Разделение по промежуткам
Продолжительность промежутка : 42 мс. (1,00 видеокадр)
Время предзагрузки промежутка : 500 ms
Заголовок : Japanese
Ещё вчера / Only Yesterday / Omoide Poro-poro (1991)
Информация о фильме
Название: Ещё вчера
Оригинальное название: Only Yesterday / Omoide Poro-poro / おもひでぽろぽろ
Страна: Япония
Год выхода: 1991
Жанр: повседневность
Режиссер: Такахата Исао / Takahata Isao / 高畑勲
Исполнительный продюсер: Миядзаки Хаяо / Miyazaki Hayao / 宮崎駿

О фильме: Япония восьмидесятых годов прошлого века. Таэко - одинокая молодая женщина из Токио, типичная служащая в крупной компании, вертящаяся в бешеном ритме столичной жизни. Когда она отправилась в отпуск на ферму своей старшей замужней сестры, переехавшей к мужу в сельскую глубинку, и погрузилась в неспешные деревенские будни, на Таэко нахлынула волна ярких воспоминаний о школьной юности конца шестидесятых, казалось, давно стёртых в памяти. С удовольствием работая в поле на фоне чудесной природы в окружении доброжелательных фермеров, она то и дело переносится в то счастливое время, когда жизнь казалась простой и понятной. Тёплые воспоминания детской рукой словно направляют Таэко, помогая ей принять трудные и важные решения о её будущем...

Студия:

Продолжительность: полнометражный фильм, 01:58:48
Перевод: Профессиональный (многоголосый закадровый) | R·U·S·C·I·C·O + Авторский (одноголосый закадровый) | Толстобров
Субтитры: русские (*srt) - полные: RUSCICO; английские (*srt) - полные: Disney
Хардсаб: отсутствует

Файл
Качество: HDRip [by rs.bandito]
Формат: AVI
Видео: 720 x 384 (1.88:1), 23.976 fps, XviD build 73 ~2005 kbps avg, 0.302 bit/pixel
Аудио #1:RUS - 48 kHz, AC3 Dolby Digital, 2/0 (L,R) ch, ~192 kbps | R·U·S·C·I·C·O |
Аудио #2:RUS - 48 kHz, AC3 Dolby Digital, 2/0 (L,R) ch, ~192 kbps | Толстобров |
Аудио #3:JAP - 48 kHz, AC3 Dolby Digital, 2/0 (L,R) ch, ~192 kbps | Оригинал |

a2fad77744cf6eeca1bf897a93f1d010.png52607b47dc8338538cc66aca8df651f7.png781e599b706e3e8d3c6278d0e5da58e1.png47705f331630c5f194a483d7c26e9933.png
cf94e7d5ad22775635f62e16b5eb2b0f.png2cd8fb1c4e83e0147593d1c165a99e65.png4f2ecaf692161744b4ff0a5547af0760.pngec6df70d32647896a57a9d87f556f981.png

MediaInfo
Общее
Полное имя : Collection of Miyazaki Hayao, part 2 / Only Yesterday (1991) / Only_Yesterday_HDRip_MVO.avi
Формат : AVI
Формат/Информация : Audio Video Interleave
Профиль формата : OpenDML
Размер файла : 2,16 Гбайт
Продолжительность : 1 ч. 58 м.
Общий поток : 2605 Кбит/сек
Название фильма : Only Yesterday
Программа кодирования : VirtualDubMod 1.5.10.2 (build 2540/release)
Библиотека кодирования : VirtualDubMod build 2540/release

Видео
Идентификатор : 0
Формат : MPEG-4 Visual
Профиль формата : Advanced Simple@L5
Параметр BVOP формата : 1
Параметр QPel формата : Нет
Параметр GMC формата : Без точки перехода
Параметр матрицы формата : Выборочная
Идентификатор кодека : XVID
Идентификатор кодека/Подсказка : XviD
Продолжительность : 1 ч. 58 м.
Битрейт : 2005 Кбит/сек
Ширина : 720 пикс.
Высота : 384 пикс.
Соотношение сторон : 1,875
Частота кадров : 23,976 кадр/сек
Цветовое пространство : YUV
Подвыборка цветности : 4:2:0
Битовая глубина : 8 бит
Тип развёртки : Прогрессивная
Метод сжатия : С потерями
Бит/(Пиксели*Кадры) : 0.302
Размер потока : 1,66 Гбайт (77%)
Библиотека кодирования : XviD 73

Аудио #1
Идентификатор : 1
Формат : AC-3
Формат/Информация : Audio Coding 3
Расширение режима : CM (complete main)
Идентификатор кодека : 2000
Продолжительность : 1 ч. 58 м.
Вид битрейта : Постоянный
Битрейт : 192 Кбит/сек
Канал(ы) : 2 канала(ов)
Расположение каналов : Front: L R
Частота : 48,0 КГц
Битовая глубина : 16 бит
Метод сжатия : С потерями
Размер потока : 163 Мбайт (7%)
Выравнивание : Разделение по промежуткам
Продолжительность промежутка : 42 мс. (1,00 видеокадр)
Время предзагрузки промежутка : 500 ms
Заголовок : Russian (MVO)

Аудио #2
Идентификатор : 2
Формат : AC-3
Формат/Информация : Audio Coding 3
Расширение режима : CM (complete main)
Идентификатор кодека : 2000
Продолжительность : 1 ч. 58 м.
Вид битрейта : Постоянный
Битрейт : 192 Кбит/сек
Канал(ы) : 2 канала(ов)
Расположение каналов : Front: L R
Частота : 48,0 КГц
Битовая глубина : 16 бит
Метод сжатия : С потерями
Размер потока : 163 Мбайт (7%)
Выравнивание : Разделение по промежуткам
Продолжительность промежутка : 42 мс. (1,00 видеокадр)
Время предзагрузки промежутка : 500 ms
Заголовок : Russian (AVO)

Аудио #3
Идентификатор : 3
Формат : AC-3
Формат/Информация : Audio Coding 3
Расширение режима : CM (complete main)
Идентификатор кодека : 2000
Продолжительность : 1 ч. 58 м.
Вид битрейта : Постоянный
Битрейт : 192 Кбит/сек
Канал(ы) : 2 канала(ов)
Расположение каналов : Front: L R
Частота : 48,0 КГц
Битовая глубина : 16 бит
Метод сжатия : С потерями
Размер потока : 163 Мбайт (7%)
Выравнивание : Разделение по промежуткам
Продолжительность промежутка : 42 мс. (1,00 видеокадр)
Время предзагрузки промежутка : 500 ms
Заголовок : Japanese
Война тануки в периоды Хэйсэй и Помпоко / Помпоко: Война тануки / Pom Poko / Heisei Tanuki Gassen Ponpoko (1994)
Информация о фильме
Название: Война тануки в периоды Хэйсэй и Помпоко / Помпоко: Война тануки
Оригинальное название: Pom Poko / Heisei Tanuki Gassen Ponpoko / 平成狸合戦ぽんぽこ
Страна: Япония
Год выхода: 1994
Жанр: комедия, драма, фэнтези
Режиссер: Такахата Исао / Takahata Isao / 高畑勲
Продюсер: Миядзаки Хаяо / Miyazaki Hayao / 宮崎駿

О фильме: Современная Япония, западные окраины Токио. Люди застраивают леса и холмы, которые раньше принадлежали тануки — енотовидным собакам. Тануки начинают героическую, но обреченную войну за выживание. Для этого они возрождают древнее искусство превращения. С его помощью они могут превращаться даже в людей…

Студия:

Продолжительность: полнометражный фильм, 01:59:11
Перевод: Профессиональный (многоголосый закадровый) | Киномания + Авторский (одноголосый закадровый) | Толстобров
Субтитры: русские (*srt) - полные: Группа RAnKO
Хардсаб: отсутствует

Файл
Качество: HDRip [by rs.bandito]
Формат: AVI
Видео: 704 x 384 (1.83:1), 23.976 fps, XviD build 73 ~1999 kbps avg, 0.308 bit/pixel
Аудио #1:RUS - 48 kHz, AC3 Dolby Digital, 2/0 (L,R) ch, ~192 kbps | Киномания |
Аудио #2:RUS - 48 kHz, AC3 Dolby Digital, 2/0 (L,R) ch, ~192 kbps | Толстобров |
Аудио #3:JAP - 48 kHz, AC3 Dolby Digital, 2/0 (L,R) ch, ~192 kbps | Оригинал |

21fa687e7071ddf18619fdc02ab6b58c.png1fc1e800b87a3e7de59004142e159f60.png23a2c249422dd353ea2bc6554af7f9cb.pnga7e76182b96006122dd4f64d99b5765c.png
08769524dad1109cc520592036c9376e.pngb0d2bc11fc45cb5f028646b853ae5abd.png0ed842ca09a9fe8dd7f050e74db98820.png

MediaInfo
Общее
Полное имя : Collection of Miyazaki Hayao, part 2 / Pom Poko (1994) / Pom_Poko_HDRip_MVO.avi
Формат : AVI
Формат/Информация : Audio Video Interleave
Профиль формата : OpenDML
Размер файла : 2,16 Гбайт
Продолжительность : 1 ч. 59 м.
Общий поток : 2599 Кбит/сек
Название фильма : Pom Poko
Программа кодирования : VirtualDubMod 1.5.10.2 (build 2540/release)
Библиотека кодирования : VirtualDubMod build 2540/release

Видео
Идентификатор : 0
Формат : MPEG-4 Visual
Профиль формата : Advanced Simple@L5
Параметр BVOP формата : 1
Параметр QPel формата : Нет
Параметр GMC формата : Без точки перехода
Параметр матрицы формата : Выборочная
Идентификатор кодека : XVID
Идентификатор кодека/Подсказка : XviD
Продолжительность : 1 ч. 59 м.
Битрейт : 1999 Кбит/сек
Ширина : 704 пикс.
Высота : 384 пикс.
Соотношение сторон : 16:9
Частота кадров : 23,976 кадр/сек
Цветовое пространство : YUV
Подвыборка цветности : 4:2:0
Битовая глубина : 8 бит
Тип развёртки : Прогрессивная
Метод сжатия : С потерями
Бит/(Пиксели*Кадры) : 0.308
Размер потока : 1,66 Гбайт (77%)
Библиотека кодирования : XviD 73

Аудио #1
Идентификатор : 1
Формат : AC-3
Формат/Информация : Audio Coding 3
Расширение режима : CM (complete main)
Идентификатор кодека : 2000
Продолжительность : 1 ч. 59 м.
Вид битрейта : Постоянный
Битрейт : 192 Кбит/сек
Канал(ы) : 2 канала(ов)
Расположение каналов : Front: L R
Частота : 48,0 КГц
Битовая глубина : 16 бит
Метод сжатия : С потерями
Размер потока : 164 Мбайт (7%)
Выравнивание : Разделение по промежуткам
Продолжительность промежутка : 42 мс. (1,00 видеокадр)
Время предзагрузки промежутка : 500 ms
Заголовок : Russian (MVO)

Аудио #2
Идентификатор : 2
Формат : AC-3
Формат/Информация : Audio Coding 3
Расширение режима : CM (complete main)
Идентификатор кодека : 2000
Продолжительность : 1 ч. 59 м.
Вид битрейта : Постоянный
Битрейт : 192 Кбит/сек
Канал(ы) : 2 канала(ов)
Расположение каналов : Front: L R
Частота : 48,0 КГц
Битовая глубина : 16 бит
Метод сжатия : С потерями
Размер потока : 164 Мбайт (7%)
Выравнивание : Разделение по промежуткам
Продолжительность промежутка : 42 мс. (1,00 видеокадр)
Время предзагрузки промежутка : 500 ms
Заголовок : Russian (AVO)

Аудио #3
Идентификатор : 3
Формат : AC-3
Формат/Информация : Audio Coding 3
Расширение режима : CM (complete main)
Идентификатор кодека : 2000
Продолжительность : 1 ч. 59 м.
Вид битрейта : Постоянный
Битрейт : 192 Кбит/сек
Канал(ы) : 2 канала(ов)
Расположение каналов : Front: L R
Частота : 48,0 КГц
Битовая глубина : 16 бит
Метод сжатия : С потерями
Размер потока : 164 Мбайт (7%)
Выравнивание : Разделение по промежуткам
Продолжительность промежутка : 42 мс. (1,00 видеокадр)
Время предзагрузки промежутка : 500 ms
Заголовок : Japanese
На старт! / On Your Mark / Chage and Aska - On Your Mark (1995)
Информация о фильме
Название: На старт!
Оригинальное название: On Your Mark / Chage and Aska - On Your Mark / On Your Mark CHAGE & ASKA
Страна: Япония
Год выхода: 1995
Жанр: фантастика, драма, музыкальный
Режиссер: Миядзаки Хаяо / Miyazaki Hayao / 宮崎駿
Сценарист: Миядзаки Хаяо / Miyazaki Hayao / 宮崎駿

О фильме: Мир далёкого будущего. В футуристическом мегаполисе полицейский спецназ штурмует гнездо некой религиозной секты, забаррикадировавшейся в верхней части исполинского небоскрёба. Среди груд обломков и гор трупов два друга-полицейских обнаруживают прикованную к стене еле живую девушку-подростка с большими белыми крыльями за спиной. Поражённые удивительной находкой, они оказывают этому ангелу первую помощь и передают властям. Проходит время, но образ девушки с крыльями не оставляет приятелей. Узнав, что незнакомка содержится в закрытой научной лаборатории, друзья решают во что бы то ни стало вернуть её на свободу... © Алексей Фадеев, World Art

Студия:

Продолжительность: музыкальное видео, 00:06:46
Перевод: Не требуется
Субтитры: русские (*srt) - полные: Кампай-клуб; английские (*srt) - полные: Castles In The Air
Хардсаб: отсутствует

Файл
Качество: BDRip [by rs.bandito]
Формат: AVI
Видео: 704 x 384 (1.83:1), 23.976 fps, XviD build 73 ~1999 kbps avg, 0.308 bit/pixel
Аудио #1:JAP - 48 kHz, AC3 Dolby Digital, 3/2 (L,C,R,l,r) + LFE ch, ~448 kbps | японский оригинал "On Your Mark" |
Аудио #2:ENG - 48 kHz, AC3 Dolby Digital, 2/0 (L,R) ch, ~192 kbps | версия на английском языке "Castles In The Air" |

Доп. информация: Экспериментальный короткометражный фильм, а по сути музыкальный клип на песню дуэта Chage&Aska, созданный в период подготовки Хаяо Миязаки к работе над полнометражной "Принцессой Мононокэ". На диске были представлены две версии песни: японский оригинал "On Your Mark" и версия на английском языке со схожей музыкой, но другими словами – "Castles In The Air".

1795546303c5d854460d641921b0f6df.pngbaf704e27ea569e9b1cbc3f5c3388d06.pngf61c9201cd0b389c597ace76e734e3a0.png6ca9b59d752c32ca2dc30047fb472a25.png
d27e1d176c8fad981c9eb0d17aaef970.png6ab2e390e31f320e0653ca9f7ef620a3.pngb5b3b95476c395726cc5d4250ec9336f.png80418a6381d9fcff344b6745e49ea3f4.png

MediaInfo
Общее
Полное имя : Collection of Miyazaki Hayao, part 2 / On Your Mark (1995) / On_Your_Mark_BDRip_SUB.avi
Формат : AVI
Формат/Информация : Audio Video Interleave
Размер файла : 129 Мбайт
Продолжительность : 6 м. 46 с.
Общий поток : 2654 Кбит/сек
Название фильма : On Your Mark
Программа кодирования : VirtualDubMod 1.5.10.2 (build 2540/release)
Библиотека кодирования : VirtualDubMod build 2540/release

Видео
Идентификатор : 0
Формат : MPEG-4 Visual
Профиль формата : Advanced Simple@L5
Параметр BVOP формата : 1
Параметр QPel формата : Нет
Параметр GMC формата : Без точки перехода
Параметр матрицы формата : Выборочная
Идентификатор кодека : XVID
Идентификатор кодека/Подсказка : XviD
Продолжительность : 6 м. 46 с.
Битрейт : 1999 Кбит/сек
Ширина : 704 пикс.
Высота : 384 пикс.
Соотношение сторон : 16:9
Частота кадров : 23,976 кадр/сек
Цветовое пространство : YUV
Подвыборка цветности : 4:2:0
Битовая глубина : 8 бит
Тип развёртки : Прогрессивная
Метод сжатия : С потерями
Бит/(Пиксели*Кадры) : 0.308
Размер потока : 96,9 Мбайт (75%)
Библиотека кодирования : XviD 73

Аудио #1
Идентификатор : 1
Формат : AC-3
Формат/Информация : Audio Coding 3
Расширение режима : CM (complete main)
Идентификатор кодека : 2000
Продолжительность : 6 м. 46 с.
Вид битрейта : Постоянный
Битрейт : 448 Кбит/сек
Канал(ы) : 6 канала(ов)
Расположение каналов : Front: L C R, Side: L R, LFE
Частота : 48,0 КГц
Битовая глубина : 16 бит
Метод сжатия : С потерями
Размер потока : 21,7 Мбайт (17%)
Выравнивание : Разделение по промежуткам
Продолжительность промежутка : 42 мс. (1,00 видеокадр)
Время предзагрузки промежутка : 500 ms
Заголовок : Japanese

Аудио #2
Идентификатор : 2
Формат : AC-3
Формат/Информация : Audio Coding 3
Расширение режима : CM (complete main)
Идентификатор кодека : 2000
Продолжительность : 6 м. 46 с.
Вид битрейта : Постоянный
Битрейт : 192 Кбит/сек
Канал(ы) : 2 канала(ов)
Расположение каналов : Front: L R
Частота : 48,0 КГц
Битовая глубина : 16 бит
Метод сжатия : С потерями
Размер потока : 9,30 Мбайт (7%)
Выравнивание : Разделение по промежуткам
Продолжительность промежутка : 42 мс. (1,00 видеокадр)
Время предзагрузки промежутка : 500 ms
Заголовок : English
Шёпот сердца / Whisper of the Heart / Mimi o Sumaseba / Mimi wo Sumaseba (1995)
Информация о фильме
Название: Шёпот сердца
Оригинальное название: Whisper of the Heart / Mimi o Sumaseba / Mimi wo Sumaseba / 耳をすませば
Страна: Япония
Год выхода: 1995
Жанр: романтика, повседневность
Режиссер: Кондо Ёсифуми / Kondo Yoshifumi / 近藤喜文
Сценарий: Миядзаки Хаяо / Miyazaki Hayao / 宮崎駿

О фильме: Школьница средних классов Сидзуку Цукисима обожает читать, «глотая» книги одну за другой. Однако какую бы книжку она ни брала из школьной библиотеки, в формуляре прочитавших её прежде значится имя Сэйдзи Амасава. После знакомства с этим необычным пареньком, ставшем её первой любовью, Сидзуку узнаёт много нового и о себе самой, о своих целях в жизни - открытие, которое необратимо изменит её судьбу.

Студия:

Продолжительность: полнометражный фильм, 01:50:50
Перевод: Профессиональный (многоголосый закадровый) | R·U·S·C·I·C·O
Субтитры: русские (*srt) - полные: RUSCICO; полные: Анна Панина; английские (*srt) - полные
Хардсаб: отсутствует

Файл
Качество: HDRip [by rs.bandito]
Формат: AVI
Видео: 720 x 384 (1.88:1), 23.976 fps, XviD build 73 ~1928 kbps avg, 0.291 bit/pixel
Аудио #1:RUS - 48 kHz, AC3 Dolby Digital, 3/2 (L,C,R,l,r) + LFE ch, ~448 kbps | R·U·S·C·I·C·O |
Аудио #2:JAP - 48 kHz, AC3 Dolby Digital, 3/2 (L,C,R,l,r) + LFE ch, ~448 kbps | Оригинал |

08982d0aa43c91dd1d363f3bef3e2af1.pngd206100f5abbccaddb14e76dc6f391c1.png2548889cf5d06e7810fa8e219c484cfc.png0bd4d9ca78dd00299bddde60dbf98888.png
9ad1db38c009502e7fdc6b29ccd54cd2.pngbf29fca2ad4542582deda83d00790b30.pngbdd3467f8ca134e14fd055fc4f4a6abe.pngb4b85dfd0b29cb861c4c61ad37e32d12.png

MediaInfo
Общее
Полное имя : Collection of Miyazaki Hayao, part 2 / Whisper of the Heart (1995) / Whisper_of_the_Heart_HDRip_MVO.avi
Формат : AVI
Формат/Информация : Audio Video Interleave
Профиль формата : OpenDML
Размер файла : 2,20 Гбайт
Продолжительность : 1 ч. 50 м.
Общий поток : 2841 Кбит/сек
Название фильма : Whisper of the Heart
Программа кодирования : VirtualDubMod 1.5.10.3 | www.virtualdub-fr.org || (build 2550/release)

Видео
Идентификатор : 0
Формат : MPEG-4 Visual
Профиль формата : Advanced Simple@L5
Параметр BVOP формата : 1
Параметр QPel формата : Нет
Параметр GMC формата : Без точки перехода
Параметр матрицы формата : Выборочная
Идентификатор кодека : XVID
Идентификатор кодека/Подсказка : XviD
Продолжительность : 1 ч. 50 м.
Битрейт : 1928 Кбит/сек
Ширина : 720 пикс.
Высота : 384 пикс.
Соотношение сторон : 1,875
Частота кадров : 23,976 кадр/сек
Цветовое пространство : YUV
Подвыборка цветности : 4:2:0
Битовая глубина : 8 бит
Тип развёртки : Прогрессивная
Метод сжатия : С потерями
Бит/(Пиксели*Кадры) : 0.291
Размер потока : 1,49 Гбайт (68%)
Библиотека кодирования : XviD 73

Аудио #1
Идентификатор : 1
Формат : AC-3
Формат/Информация : Audio Coding 3
Расширение режима : CM (complete main)
Идентификатор кодека : 2000
Продолжительность : 1 ч. 50 м.
Вид битрейта : Постоянный
Битрейт : 448 Кбит/сек
Канал(ы) : 6 канала(ов)
Расположение каналов : Front: L C R, Side: L R, LFE
Частота : 48,0 КГц
Битовая глубина : 16 бит
Метод сжатия : С потерями
Размер потока : 355 Мбайт (16%)
Выравнивание : Разделение по промежуткам
Продолжительность промежутка : 42 мс. (1,00 видеокадр)
Время предзагрузки промежутка : 500 ms
Заголовок : Russian

Аудио #2
Идентификатор : 2
Формат : AC-3
Формат/Информация : Audio Coding 3
Расширение режима : CM (complete main)
Идентификатор кодека : 2000
Продолжительность : 1 ч. 50 м.
Вид битрейта : Постоянный
Битрейт : 448 Кбит/сек
Канал(ы) : 6 канала(ов)
Расположение каналов : Front: L C R, Side: L R, LFE
Частота : 48,0 КГц
Битовая глубина : 16 бит
Метод сжатия : С потерями
Размер потока : 355 Мбайт (16%)
Выравнивание : Разделение по промежуткам
Продолжительность промежутка : 42 мс. (1,00 видеокадр)
Время предзагрузки промежутка : 500 ms
Заголовок : Japanese
Возвращение кота / Кошачья благодарность / The Cat Returns / Neko no Ongaeshi (2002)
Информация о фильме
Название: Возвращение кота / Кошачья благодарность
Оригинальное название: The Cat Returns / Neko no Ongaeshi / 猫の恩返し
Страна: Япония
Год выхода: 2002
Жанр: приключения, сказка
Режиссер: Морита Хироюки / Morita Hiroyuki / 森田宏幸
Исполнительный продюсер: Миядзаки Хаяо / Miyazaki Hayao / 宮崎駿

О фильме: В разгар дня на оживленной улице юная Хару храбро выхватывает из-под колес грузовика очаровательного кота. К ее великому удивлению, кот встает на задние лапки и благодарит Хару на человеческом языке. Оказывается, перед ней принц из загадочного Кошачьего царства, и теперь могущественный Кошачий царь хочет женить его на отважной спасительнице. Вскоре он похищает Хару, которая вовсе не желает быть кошачьей принцессой, и только верные усатые и хвостатые друзья - толстый бродяга Мьюта и великолепный Барон смогут вызволить ее из кошачьего плена. Впереди их ждут неожиданные встречи и самые невероятные приключения в неведомом Царстве Кошек. Сумеет ли Хару найти дорогу домой?

Студия:

Продолжительность: полнометражный фильм, 01:15:03
Перевод: Профессиональный (многоголосый закадровый) | Киномания
Субтитры: русские (*srt) - полные: Киномания; полные: Narsus, Centaur & Лэн; полные: вАСИЛИЙ тАПОЧКИН
Хардсаб: отсутствует

Файл
Качество: BDRip [by rs.bandito]
Формат: AVI
Видео: 720 x 384 (1.88:1), 23.976 fps, XviD build 73 ~1892 kbps avg, 0.285 bit/pixel
Аудио #1:RUS - 48 kHz, AC3 Dolby Digital, 3/2 (L,C,R,l,r) + LFE ch, ~448 kbps | Киномания |
Аудио #2:JAP - 48 kHz, AC3 Dolby Digital, 3/2 (L,C,R,l,r) + LFE ch, ~448 kbps | Оригинал |

65519c3400aad10dfce815ca54a77ba9.png8e63e556fc520d26afa8213210e7f454.pngc16da885d8bfa54912958eee841f6604.pngd14a0eba454f95f14349de963be7b040.png
0d58739bf872d4d9837f77ebc9244ce8.png4d011d7160c8d9820ddb29ff9808788d.pnga5b66161e1c656ea4a9a8b7e011852ce.png94f7304f623f7951ee172c70f63c7ead.png

MediaInfo
Общее
Полное имя : Collection of Miyazaki Hayao, part 2 / The Cat Returns (2002) / The_Cat_Returns_BDRip_MVO.avi
Формат : AVI
Формат/Информация : Audio Video Interleave
Размер файла : 1,47 Гбайт
Продолжительность : 1 ч. 15 м.
Общий поток : 2802 Кбит/сек
Название фильма : The Cat Returns
Программа кодирования : VirtualDubMod 1.5.10.2 (build 2540/release)
Библиотека кодирования : VirtualDubMod build 2540/release

Видео
Идентификатор : 0
Формат : MPEG-4 Visual
Профиль формата : Advanced Simple@L5
Параметр BVOP формата : 1
Параметр QPel формата : Нет
Параметр GMC формата : Без точки перехода
Параметр матрицы формата : Выборочная
Идентификатор кодека : XVID
Идентификатор кодека/Подсказка : XviD
Продолжительность : 1 ч. 15 м.
Битрейт : 1892 Кбит/сек
Ширина : 720 пикс.
Высота : 384 пикс.
Соотношение сторон : 1,875
Частота кадров : 23,976 кадр/сек
Цветовое пространство : YUV
Подвыборка цветности : 4:2:0
Битовая глубина : 8 бит
Тип развёртки : Прогрессивная
Метод сжатия : С потерями
Бит/(Пиксели*Кадры) : 0.285
Размер потока : 1016 Мбайт (68%)
Библиотека кодирования : XviD 73

Аудио #1
Идентификатор : 1
Формат : AC-3
Формат/Информация : Audio Coding 3
Расширение режима : CM (complete main)
Идентификатор кодека : 2000
Продолжительность : 1 ч. 14 м.
Вид битрейта : Постоянный
Битрейт : 448 Кбит/сек
Канал(ы) : 6 канала(ов)
Расположение каналов : Front: L C R, Side: L R, LFE
Частота : 48,0 КГц
Битовая глубина : 16 бит
Метод сжатия : С потерями
Размер потока : 240 Мбайт (16%)
Выравнивание : Разделение по промежуткам
Продолжительность промежутка : 42 мс. (1,00 видеокадр)
Время предзагрузки промежутка : 500 ms
Заголовок : Russian

Аудио #2
Идентификатор : 2
Формат : AC-3
Формат/Информация : Audio Coding 3
Расширение режима : CM (complete main)
Идентификатор кодека : 2000
Продолжительность : 1 ч. 15 м.
Вид битрейта : Постоянный
Битрейт : 448 Кбит/сек
Канал(ы) : 6 канала(ов)
Расположение каналов : Front: L C R, Side: L R, LFE
Частота : 48,0 КГц
Битовая глубина : 16 бит
Метод сжатия : С потерями
Размер потока : 241 Мбайт (16%)
Выравнивание : Разделение по промежуткам
Продолжительность промежутка : 42 мс. (1,00 видеокадр)
Время предзагрузки промежутка : 500 ms
Заголовок : Japanese
Сказания Земноморья / Tales from Earthsea / Gedo Senki: Tales from Earthsea (2006)
Информация о фильме
Название: Сказания Земноморья
Оригинальное название: Tales from Earthsea / Gedo Senki: Tales from Earthsea / ゲド戦記 Tales from Earthsea
Страна: Япония
Год выхода: 2006
Жанр: приключения, фэнтези
Режиссер: Миядзаки Горо / Miyazaki Gorou / 宮崎吾朗
Сценарий: Миядзаки Горо / Miyazaki Gorou / 宮崎吾朗, Миядзаки Хаяо / Miyazaki Hayao / 宮崎駿, Нива Кэйко / Niwa Keiko / 丹羽圭子

О фильме: Горы, пещеры и замки сказочной страны, драконы и амулеты, заклинания и пророчества, маги и принцы, жрицы и убийцы, злодеи и праведники — в новой приключенческой анимационной фэнтази-саге о волшебном мире Земноморья.

Земноморье в опасности, мир волшебства на грани исчезновения. Вселенское равновесие нарушено: драконы, обитающие в западном пределе сказочной страны, неожиданно появляются на востоке во владениях людей. Верховный маг Гед отправляется на поиски первопричины беды. В пути он встречает Аррена, принца Энлада, который после свершения страшного греха, убийства отца, бежит из родного края, преследуемый тенью.

Прибыв в столицу Земноморья Норт Таун, путники находят пристанище в доме Белой Дамы, бывшей жрицы-хранительницы темных Гробниц Атуана. Верховный Маг Гед открывает Аррену тайны жизни и смерти, правды и лжи. Призывая служить истине с полной самоотдачей, он словно передает эстафету дерзновенному юноше, которому предначертана особая миссия в этом мире. Но успеют ли они противостать силам зла? Или уже слишком поздно…

Студия:

Продолжительность: полнометражный фильм, 01:55:32
Перевод: Профессиональный (полное дублирование) | R·U·S·C·I·C·O
Субтитры: русские (*srt) - полные: RUSCICO; английские (*srt) - полные
Хардсаб: отсутствует

Файл
Качество: HDRip [by rs.bandito]
Формат: AVI
Видео: 720 x 384 (1.88:1), 23.976 fps, XviD build 73 ~1813 kbps avg, 0.273 bit/pixel
Аудио #1:RUS - 48 kHz, AC3 Dolby Digital, 3/2 (L,C,R,l,r) + LFE ch, ~448 kbps | R·U·S·C·I·C·O |
Аудио #2:JAP - 48 kHz, AC3 Dolby Digital, 3/2 (L,C,R,l,r) + LFE ch, ~448 kbps | Оригинал |

7846b4d171a002df44849717f8ecffd9.pngca9cbce738991539551ad0d457900c51.png1fccdd8a84ee64a63173c5a95a2f37a9.pngeb801f5068653988df2e3713d1edd72a.png
0531489c70824bcee64d4ed0b2b51b14.pnge3aba8c8cb30154209f6ade64000318e.png1d5c53b780526fd110b228c92ebe1ff1.pnga9b57324b89afa5f978d0af16a1ff33f.png

MediaInfo
Общее
Полное имя : Collection of Miyazaki Hayao, part 2 / Tales from Earthsea (2006) / Tales_from_Earthsea_HDRip_DUB.avi
Формат : AVI
Формат/Информация : Audio Video Interleave
Профиль формата : OpenDML
Размер файла : 2,20 Гбайт
Продолжительность : 1 ч. 55 м.
Общий поток : 2726 Кбит/сек
Название фильма : Tales from Earthsea
Программа кодирования : VirtualDubMod 1.5.10.3 | www.virtualdub-fr.org || (build 2550/release)

Видео
Идентификатор : 0
Формат : MPEG-4 Visual
Профиль формата : Advanced Simple@L5
Параметр BVOP формата : 1
Параметр QPel формата : Нет
Параметр GMC формата : Без точки перехода
Параметр матрицы формата : Выборочная
Идентификатор кодека : XVID
Идентификатор кодека/Подсказка : XviD
Продолжительность : 1 ч. 55 м.
Битрейт : 1813 Кбит/сек
Ширина : 720 пикс.
Высота : 384 пикс.
Соотношение сторон : 1,875
Частота кадров : 23,976 кадр/сек
Цветовое пространство : YUV
Подвыборка цветности : 4:2:0
Битовая глубина : 8 бит
Тип развёртки : Прогрессивная
Метод сжатия : С потерями
Бит/(Пиксели*Кадры) : 0.273
Размер потока : 1,46 Гбайт (66%)
Библиотека кодирования : XviD 73

Аудио #1
Идентификатор : 1
Формат : AC-3
Формат/Информация : Audio Coding 3
Расширение режима : CM (complete main)
Идентификатор кодека : 2000
Продолжительность : 1 ч. 55 м.
Вид битрейта : Постоянный
Битрейт : 448 Кбит/сек
Канал(ы) : 6 канала(ов)
Расположение каналов : Front: L C R, Side: L R, LFE
Частота : 48,0 КГц
Битовая глубина : 16 бит
Метод сжатия : С потерями
Размер потока : 370 Мбайт (16%)
Выравнивание : Разделение по промежуткам
Продолжительность промежутка : 42 мс. (1,00 видеокадр)
Время предзагрузки промежутка : 500 ms
Заголовок : Russian

Аудио #2
Идентификатор : 2
Формат : AC-3
Формат/Информация : Audio Coding 3
Расширение режима : CM (complete main)
Идентификатор кодека : 2000
Продолжительность : 1 ч. 55 м.
Вид битрейта : Постоянный
Битрейт : 448 Кбит/сек
Канал(ы) : 6 канала(ов)
Расположение каналов : Front: L C R, Side: L R, LFE
Частота : 48,0 КГц
Битовая глубина : 16 бит
Метод сжатия : С потерями
Размер потока : 370 Мбайт (16%)
Выравнивание : Разделение по промежуткам
Продолжительность промежутка : 42 мс. (1,00 видеокадр)
Время предзагрузки промежутка : 500 ms
Заголовок : Japanese
Ариэтти из страны лилипутов / The Secret World of Arrietty / Karigurashi no Arrietty (2010)
Информация о фильме
Название: Ариэтти из страны лилипутов
Оригинальное название: The Secret World of Arrietty / Karigurashi no Arrietty / 借りぐらしのアリエッティ
Страна: Япония
Год выхода: 2010
Жанр: приключения, сказка
Режиссер: Ёнэбаяси Хиромаса / Yonebayashi Hiromasa / 米林宏昌
Сценарий: Миядзаки Хаяо / Miyazaki Hayao / 宮崎駿, Нива Кэйко / Niwa Keiko / 丹羽圭子
Исполнительный продюсер: Миядзаки Хаяо / Miyazaki Hayao / 宮崎駿
Автор оригинала: Мэри Нортон / Mary Norton

О фильме: История маленьких людей, которые живут рядом с нами, одалживая вещи по чуть-чуть. Их существование хранится в секрете. Но юная Ариэти нарушает запрет. Ее обнаруживает 14-летний Шо, и они становятся лучшими друзьями.

Студия:

Продолжительность: полнометражный фильм, 01:34:14
Перевод: Профессиональный (полное дублирование) | студия «Велес» по заказу CP Digital
Субтитры: русские (*srt) - полные: Велес
Хардсаб: отсутствует

Файл
Качество: HDRip [by rs.bandito]
Формат: AVI
Видео: 720 x 384 (1.88:1), 23.976 fps, XviD build 73 ~1849 kbps avg, 0.279 bit/pixel
Аудио #1:RUS - 48 kHz, AC3 Dolby Digital, 2/0 (L,R) ch, ~192 kbps | студия «Велес» по заказу CP Digital |
Аудио #2:JAP - 48 kHz, AC3 Dolby Digital, 2/0 (L,R) ch, ~192 kbps | Оригинал |

af0e26675d96f3dbcbce0b7dd6560940.png2b0021bb91a0258fac2f0533dcab65f7.png2f2b755dca0ee840dc99ad50621109e4.pngaf94f461b1e60a17b1580b09c65810f9.png
2cd88a05f1f6456ecd79ab9874fa4136.pngdcdbbcda4d533f8fb6167ffdf76a1605.pngc8342f946676c738e8d930071c2b651e.png4cb429d06204dab9e7c81b4d2cf91061.png

MediaInfo
Общее
Полное имя : Collection of Miyazaki Hayao, part 2 / The Secret World of Arrietty (2010) / The_Secret_World_of_Arrietty_HDRip_DUB.avi
Формат : AVI
Формат/Информация : Audio Video Interleave
Размер файла : 1,48 Гбайт
Продолжительность : 1 ч. 34 м.
Общий поток : 2247 Кбит/сек
Название фильма : The Secret World of Arrietty
Программа кодирования : VirtualDubMod 1.5.10.3 | www.virtualdub-fr.org || (build 2550/release)
Библиотека кодирования : VirtualDubMod build 2550/release

Видео
Идентификатор : 0
Формат : MPEG-4 Visual
Профиль формата : Advanced Simple@L5
Параметр BVOP формата : 1
Параметр QPel формата : Нет
Параметр GMC формата : Без точки перехода
Параметр матрицы формата : Выборочная
Идентификатор кодека : XVID
Идентификатор кодека/Подсказка : XviD
Продолжительность : 1 ч. 34 м.
Битрейт : 1849 Кбит/сек
Ширина : 720 пикс.
Высота : 384 пикс.
Соотношение сторон : 1,875
Частота кадров : 23,976 кадр/сек
Цветовое пространство : YUV
Подвыборка цветности : 4:2:0
Битовая глубина : 8 бит
Тип развёртки : Прогрессивная
Метод сжатия : С потерями
Бит/(Пиксели*Кадры) : 0.279
Размер потока : 1,22 Гбайт (82%)
Библиотека кодирования : XviD 73

Аудио #1
Идентификатор : 1
Формат : AC-3
Формат/Информация : Audio Coding 3
Расширение режима : CM (complete main)
Идентификатор кодека : 2000
Продолжительность : 1 ч. 34 м.
Вид битрейта : Постоянный
Битрейт : 192 Кбит/сек
Канал(ы) : 2 канала(ов)
Расположение каналов : Front: L R
Частота : 48,0 КГц
Битовая глубина : 16 бит
Метод сжатия : С потерями
Размер потока : 129 Мбайт (9%)
Выравнивание : Разделение по промежуткам
Продолжительность промежутка : 42 мс. (1,00 видеокадр)
Время предзагрузки промежутка : 500 ms
Заголовок : Russian

Аудио #2
Идентификатор : 2
Формат : AC-3
Формат/Информация : Audio Coding 3
Расширение режима : CM (complete main)
Идентификатор кодека : 2000
Продолжительность : 1 ч. 34 м.
Вид битрейта : Постоянный
Битрейт : 192 Кбит/сек
Канал(ы) : 2 канала(ов)
Расположение каналов : Front: L R
Частота : 48,0 КГц
Битовая глубина : 16 бит
Метод сжатия : С потерями
Размер потока : 129 Мбайт (9%)
Выравнивание : Разделение по промежуткам
Продолжительность промежутка : 42 мс. (1,00 видеокадр)
Время предзагрузки промежутка : 500 ms
Заголовок : Japanese
Со склонов Кокурико / From Up on Poppy Hill / Coquelicot-zaka kara (2011)
Информация о фильме
Название: Со склонов Кокурико
Оригинальное название: From Up on Poppy Hill / Coquelicot-zaka kara / コクリコ坂から
Страна: Япония
Год выхода: 2011
Жанр: романтика, школа, сёдзё
Режиссер: Миядзаки Горо / Miyazaki Gorou / 宮崎吾朗
Сценарий: Миядзаки Хаяо / Miyazaki Hayao / 宮崎駿, Нива Кэйко / Niwa Keiko / 丹羽圭子

О фильме: Действие разворачивается в 1963 году близ Иокогамы. У героини — Уми Мацудзаки — отец, командир корабля, погибает во время Корейской войны 10 лет назад, когда она была еще маленькой девочкой. В то время как её мать находится в отъезде, девочке приходится принять хозяйство на себя, в частности, не забывать каждое утро поднимать флажки — такое правило поставил отец, чтобы видеть с моря, что его ожидают дома.

В городке имеется школьный клуб, с разнообразными секциями по интересам. Проблема этого клуба в том, что его хотят закрыть, тем более, что здание, в котором он базируется, уже обветшало. И вот Уми, вместе с другими школьными активистами должна ехать в Токио к спонсору школы, чтобы спасти дом от разрушения. На фоне общественной деятельности просыпается первая любовь.

Студия:

Продолжительность: полнометражный фильм, 01:30:51
Перевод: Профессиональный (полное дублирование) | Reanimedia
Субтитры: русские (*srt) - полные: Reanimedia, форсированные: Reanimedia, полные: Advantage; английские (*srt) - полные
Хардсаб: отсутствует

Файл
Качество: HDRip [by rs.bandito]
Формат: AVI
Видео: 720 x 384 (1.88:1), 23.976 fps, XviD build 73 ~1931 kbps avg, 0.291 bit/pixel
Аудио #1:RUS - 48 kHz, AC3 Dolby Digital, 2/0 (L,R) ch, ~192 kbps | Reanimedia |
Аудио #2:JAP - 48 kHz, AC3 Dolby Digital, 2/0 (L,R) ch, ~192 kbps | Оригинал |

66e87d4b91182a180c9fc4850af94588.png39021ca02bd7df6b392efcdaa1df50e0.png32c8c86aa1b0056989ec2cfc540146f8.png9e45f0d88e902aed87e5d1745dd85d8a.png
45c3b673427c0b1a47c3b0393670aea3.png6b408691b7313deeea013b9cde8f3859.png2aa6db9727c22969124a4be09f9ebc9f.png41cf51eb5aedecf6c96ce0c139c408e5.png

MediaInfo
Общее
Полное имя : Collection of Miyazaki Hayao, part 2 / From Up on Poppy Hill (2011) / From_Up_on_Poppy_Hill_HDRip_DUB.avi
Формат : AVI
Формат/Информация : Audio Video Interleave
Размер файла : 1,48 Гбайт
Продолжительность : 1 ч. 30 м.
Общий поток : 2329 Кбит/сек
Название фильма : From Up on Poppy Hill
Программа кодирования : VirtualDubMod 1.5.10.3 | www.virtualdub-fr.org || (build 2550/release)

Видео
Идентификатор : 0
Формат : MPEG-4 Visual
Профиль формата : Advanced Simple@L5
Параметр BVOP формата : 1
Параметр QPel формата : Нет
Параметр GMC формата : Без точки перехода
Параметр матрицы формата : Выборочная
Идентификатор кодека : XVID
Идентификатор кодека/Подсказка : XviD
Продолжительность : 1 ч. 30 м.
Битрейт : 1931 Кбит/сек
Ширина : 720 пикс.
Высота : 384 пикс.
Соотношение сторон : 1,875
Частота кадров : 23,976 кадр/сек
Цветовое пространство : YUV
Подвыборка цветности : 4:2:0
Битовая глубина : 8 бит
Тип развёртки : Прогрессивная
Метод сжатия : С потерями
Бит/(Пиксели*Кадры) : 0.291
Размер потока : 1,23 Гбайт (83%)
Библиотека кодирования : XviD 73

Аудио #1
Идентификатор : 1
Формат : AC-3
Формат/Информация : Audio Coding 3
Расширение режима : CM (complete main)
Идентификатор кодека : 2000
Продолжительность : 1 ч. 30 м.
Вид битрейта : Постоянный
Битрейт : 192 Кбит/сек
Канал(ы) : 2 канала(ов)
Расположение каналов : Front: L R
Частота : 48,0 КГц
Битовая глубина : 16 бит
Метод сжатия : С потерями
Размер потока : 125 Мбайт (8%)
Выравнивание : Разделение по промежуткам
Продолжительность промежутка : 42 мс. (1,00 видеокадр)
Время предзагрузки промежутка : 500 ms
Заголовок : Russian

Аудио #2
Идентификатор : 2
Формат : AC-3
Формат/Информация : Audio Coding 3
Расширение режима : CM (complete main)
Идентификатор кодека : 2000
Продолжительность : 1 ч. 30 м.
Вид битрейта : Постоянный
Битрейт : 192 Кбит/сек
Канал(ы) : 2 канала(ов)
Расположение каналов : Front: L R
Частота : 48,0 КГц
Битовая глубина : 16 бит
Метод сжатия : С потерями
Размер потока : 125 Мбайт (8%)
Выравнивание : Разделение по промежуткам
Продолжительность промежутка : 42 мс. (1,00 видеокадр)
Время предзагрузки промежутка : 500 ms
Заголовок : Japanese

Авторы рипов: BAXTOR5 & Miheleniya

Благодарности и исходники
Большое спасибо за предоставленные исходники:

* TolstiyMob за BDRemux - Большая панда и маленькая панда, Большая панда и маленькая панда: Дождливый день в цирке
* degekater и Tuzik55555 за BDRip 1080p - Ещё вчера
* Tuzik55555 за BDRip 1080p - Война тануки в периоды Хэйсэй и Помпоко
* burnin-snikers за Blu-ray - На старт!
* Skazhutin за BDRip 1080p - Шёпот сердца
* Reigar. за BDRemux - Кошачья благодарность / Возвращение кота
* envy за BDRip 1080p - Сказания Земноморья
* envy за BDRip 1080p - Ариэтти из страны лилипутов
* Страник 2.0 за BDRip 1080p - Со склонов Кокурико
 

Вложения

Привет!

Мы группа людей которые решили помочь другим в решении их проблем, а так же пользователям с поиском самых свежих и качественных инфопродуктов. За 4 с небольшим месяца мы создали этот форум на который заходят ежедневно тысячи человек и посещаемость постоянно растёт. Мы создали панель лицензирования для защиты PHP скриптов от воровства и SEO панель для мониторинга наших сайтов и выбора верной стратегии их развития. Мы надеемся что то что мы создали пригодится Вам и возможно Вы поможете нам развиваться и совершенствоваться вместе с Вами.

Статистика форума

Темы
404.589
Сообщения
461.466
Пользователи
80.281
Новый пользователь
MrProUk

Приложения форума для iOS и Android


У ркн там нет власти ;)
Приватные разговоры
Помощь Пользователи
    Вы не присоединились ни к одной комнате.