За последнюю неделю опубликовано 57 новых материалов.
Инструкция новичку Путеводитель по форуму Прокси для Telegram Показать подсказки , это бомба!

Скачать Кокаиновый барон / Running with the Devil (2019) BDRemux 1080p | NOR Transfer | iTunes бесплатно через торрент

  • Поучаствуй (в качестве покупателя) в любых пяти совместных покупках (кроме завершённых и "Моментальных") и получи группу "Новичок" навсегда -> ссылка на раздел
  • Получай до 480 рублей за каждого приглашенного пользователя!
    представляем Вам очередное расширение партнерской программы, подробности описаны тут -> ссылка
  • 90% материалов доступно к скачиванию после простой регистрации!
    Если же ты хочешь скачивать материалы без требования оставлять отзывы то получи группу "Новичок", 10 способов повышения описаны тут -> ссылка
  • К сожалению количество битых ссылок растет и мы уже не можем их оперативно восстанавливать поэтому просим помощи у каждого нашего пользователя.
    С сегодняшнего дня, за каждую восстановленную ссылку мы заплатим Вам.
    Подробнее тут -> ссылка
  • Перенесем твои заслуги с другого ресурса!
    Мы понимаем как сложно прокачивать аккаунты на форумах, вроде раскачал аккаунт, а тут появляется ресурс в 100 раз круче но тоже с системой прокачки и снова качать аккаунт...
    Предлагаем вам перенести Ваши заслуги на другом подобном ресурсе к нам.
    Подробности описаны тут -> ссылка
  • Вы можете получать по 2.5% с каждой покупки и продажи на маркете! Подробности в теме Партнёрская программа
Если Вы не хотите скачивать, Вы всегда можетепосмотретьонлайн, просто нажмите кнопку ниже :

Открыть плеер

Torrent_Bot

Торрент-Бот
Бот форума
4 Окт 2016
92
163
20



Информация о фильме
Название: Кокаиновый барон
Оригинальное название: Running with the Devil
Год выхода: 2019
Жанр: криминал, боевик, комедия, триллер, драма
Режиссер: Джейсон Кэбелл
В ролях: Николас Кейдж, Лоуренс Фишборн, Бэрри Пеппер, Коул Хаузер, Лесли Бибб, Питер Фачинелли, Клифтон Коллинз мл., Адам Голдберг, Наталия Рейес, Тейт Флетчер

О фильме:
Груз кокаина следует из Мексики через США в Канаду. Когда партия не достигает цели, лидер картеля Босс посылает своих верных помощников - Повара и Мужика - разобраться, как работает сеть поставщиков.



Страна: Колумбия, США
Студия: Jaguar Bite, Patriot Pictures
Продолжительность: 01:32:07
Перевод: Дублированный (iTunes)

Файл
Качество: BDRemux 1080p | NOR Transfer | iTunes
Видео: MPEG2, 1920x1080, 22 Мbps, 23,976 fps
Звук:
Аудио 1: AC3, 6 ch, 384 Kbps - Русский
Аудио 2: AC3, 6 ch, 640 Kbps - Английский
Аудио 3: DTS-HD MA, 6 ch, 1812 Kbps - Английский
Субтитры: русские (Forced)
Примечание
NOR Transfer идентичен расстановкой сцен с WEB-DL русского iTunes. Полный перевод, на испанскую речь добавлены русские сабы
Mediainfo
Общее
Уникальный идентификатор : 26602359357574031824505522772912287436 (0x14036D948A91DAFCE78649E39E8EAECC)
Полное имя : Running with the Devil.2019.Remux.W.mkv
Формат : Matroska
Версия формата : Version 4
Размер файла : 16,0 Гбайт
Продолжительность : 1 ч. 32 м.
Режим общего битрейта : Переменный
Общий поток : 24,8 Мбит/сек
Название фильма : Running with the Devil.2019.Remux.W
Дата кодирования : UTC 2020-05-19 20:00:42
Программа кодирования : mkvmerge v23.0.0 ('The Bride Said No') 64-bit
Библиотека кодирования : libebml v1.3.6 + libmatroska v1.4.9

Видео
Идентификатор : 1
Формат : MPEG Video
Версия формата : Version 2
Профиль формата : [email protected]
Настройки формата : BVOP
Параметр BVOP формата : Да
Параметр матрицы формата : По умолчанию
Параметр GOP формата : M=3, N=12
Идентификатор кодека : V_MPEG2
Идентификатор кодека/Информация : MPEG 1 or 2 Video
Продолжительность : 1 ч. 32 м.
Вид битрейта : Переменный
Битрейт : 22,0 Мбит/сек
Максимальный битрейт : 40,0 Мбит/сек
Ширина : 1 920 пикселей
Высота : 1 080 пикселей
Соотношение сторон : 16:9
Режим частоты кадров : Постоянный
Частота кадров : 23,976 (24000/1001) кадра/сек
Цветовое пространство : YUV
Субдискретизация насыщенности : 4:2:0
Битовая глубина : 8 бит
Тип развёртки : Прогрессивная
Метод сжатия : С потерями
Бит/(Пиксели*Кадры) : 0.443
Временной код первого кадра : 00:00:00:00
Оригинал временного кода : Group of pictures header
GOP, открыто/закрыто : Закрыто
Размер потока : 14,2 Гбайт (89%)
Язык : English
Default : Да
Forced : Нет

Аудио #1
Идентификатор : 2
Формат : AC-3
Формат/Информация : Audio Coding 3
Коммерческое название : Dolby Digital
Идентификатор кодека : A_AC3
Продолжительность : 1 ч. 32 м.
Вид битрейта : Постоянный
Битрейт : 384 Кбит/сек
Каналы : 6 каналов
Channel layout : L R C LFE Ls Rs
Частота : 48,0 КГц
Частота кадров : 31,250 кадров/сек (1536 SPF)
Метод сжатия : С потерями
Размер потока : 253 Мбайт (2%)
Заголовок : DUB | iTunes
Язык : Russian
Service kind : Complete Main
Default : Да
Forced : Нет

Аудио #2
Идентификатор : 3
Формат : AC-3
Формат/Информация : Audio Coding 3
Коммерческое название : Dolby Digital
Идентификатор кодека : A_AC3
Продолжительность : 1 ч. 32 м.
Вид битрейта : Постоянный
Битрейт : 640 Кбит/сек
Каналы : 6 каналов
Channel layout : L R C LFE Ls Rs
Частота : 48,0 КГц
Частота кадров : 31,250 кадров/сек (1536 SPF)
Метод сжатия : С потерями
Размер потока : 422 Мбайт (3%)
Язык : English
Service kind : Complete Main
Default : Нет
Forced : Нет

Аудио #3
Идентификатор : 4
Формат : DTS XLL
Формат/Информация : Digital Theater Systems
Коммерческое название : DTS-HD Master Audio
Идентификатор кодека : A_DTS
Продолжительность : 1 ч. 32 м.
Вид битрейта : Переменный
Битрейт : 1 812 Кбит/сек
Каналы : 6 каналов
Channel layout : C L R Ls Rs LFE
Частота : 48,0 КГц
Частота кадров : 93,750 кадра/сек (512 SPF)
Битовая глубина : 16 бит
Метод сжатия : Без потерь
Размер потока : 1,17 Гбайт (7%)
Язык : English
Default : Нет
Forced : Нет

Текст
Идентификатор : 5
Формат : UTF-8
Идентификатор кодека : S_TEXT/UTF8
Идентификатор кодека/Информация : UTF-8 Plain Text
Продолжительность : 1 ч. 17 м.
Битрейт : 6 бит/сек
Count of elements : 88
Размер потока : 3,48 Кбайт (0%)
Заголовок : Forced
Язык : Russian
Default : Да
Forced : Нет

Меню
00:00:00.000 : en:Chapter 1
00:08:41.521 : en:Chapter 2
00:20:51.750 : en:Chapter 3
00:29:34.773 : en:Chapter 4
00:40:00.898 : en:Chapter 5
00:51:29.086 : en:Chapter 6
01:02:40.256 : en:Chapter 7
01:18:09.184 : en:Chapter 8
Скриншоты
 

Вложения

  • 80,8 KB Просмотры: 0
    Личеров 0
    Сидеров 0
    Файлов 1
    Объем 16 GB

Привет!

Мы группа людей которые решили помочь другим в решении их проблем, а так же пользователям с поиском самых свежих и качественных инфопродуктов. За 4 с небольшим месяца мы создали этот форум на который заходят ежедневно тысячи человек и посещаемость постоянно растёт. Мы создали панель лицензирования для защиты PHP скриптов от воровства и SEO панель для мониторинга наших сайтов и выбора верной стратегии их развития. Мы надеемся что то что мы создали пригодится Вам и возможно Вы поможете нам развиваться и совершенствоваться вместе с Вами.

Статистика форума

Темы
406.698
Сообщения
465.162
Пользователи
84.787
Новый пользователь
Freckle

Приложения форума для iOS и Android


У ркн там нет власти ;)
Приватные разговоры
Помощь Пользователи
    Вы не присоединились ни к одной комнате.